Сообщение

Молодой Сталин (Сергей Костин) [2013, Документальный, биография, история, SATRip]

Сообщение Солнышко » 14 мар 2018, 23:47

Молодой Сталин
Год выпуска: 2013
Страна: Россия
Производство: ОАО "ТРК ВС РФ "Звезда"
Жанр: Документальный, биография, история
Продолжительность: 00:41:27
Перевод: Не требуется
Русские субтитры: нет
Режиссер: Сергей Костин
Описание: Сталин относится к тем историческим фигурам, по поводу которых мнения часто прямо противоположны. При жизни миллионы людей его боготворили – и миллионы проклинали. Споры не утихают и после его смерти. Кем он был? Одним из создателей и руководителем крупнейшего государства, в одиночку противостоящего остальному миру, организатором и главным стратегом победы в самой страшной войне человечества? Или тираном, который планомерно уничтожал собственный народ и вел свою страну в никуда? Однако в жизни Сталина существует период, по поводу которого могли бы сойтись во мнении самые разные люди. Это детство Сосо Джугашвили, его романтическая юность начинающего поэта, учеба в Тбилисской семинарии и первые шаги революционера с налетами на банки. Фильм Сергея Костина расскажет о жизни в Грузии и становлении личности Сосо Джугашвили до того, как он станет товарищем Сталиным...
качество: SATRip
формат: AVI
видеокодек: XviD
аудиокодек: MP3
Видео: MPEG-4 Visual, XviD, 720 х 416 (1,731), 25,000 кадров/сек, 1695 Кбит/сек, 0.226 бит/пикс
Аудио: MP3, 48,0 КГц, 128 Кбит/сек, 2 канала
Рип: marfa12 релиз группа:
Общее
Полное имя : D:\torrent\Молодой Сталин.avi
Формат : AVI
Формат/Информация : Audio Video Interleave
Размер файла : 543 Мбайт
Продолжительность : 41 м.
Общий поток : 1833 Кбит/сек
Библиотека кодирования : VirtualDub build 30091/release
Видео
Идентификатор : 0
Формат : MPEG-4 Visual
Профиль формата : Simple@L3
Параметр BVOP формата : 2
Параметр QPel формата : Нет
Параметр GMC формата : Без точки перехода
Параметр матрицы формата : Default (MPEG)
Идентификатор кодека : XVID
Идентификатор кодека/Подсказка : XviD
Продолжительность : 41 м.
Битрейт : 1695 Кбит/сек
Ширина : 720 пикселей
Высота : 416 пикселей
Соотношение сторон : 1,731
Частота кадров : 25,000 кадров/сек
Цветовое пространство : YUV
Субдискретизация насыщенности : 4:2:0
Битовая глубина : 8 бит
Тип развёртки : Прогрессивная
Метод сжатия : С потерями
Бит/(Пиксели*Кадры) : 0.226
Размер потока : 503 Мбайт (92%)
Библиотека кодирования : XviD 1.1.0 Beta2 (UTC 2005-04-04)
Аудио
Идентификатор : 1
Формат : MPEG Audio
Версия формата : Version 1
Профиль формата : Layer 3
Режим : Joint stereo
Расширение режима : MS Stereo
Идентификатор кодека : 55
Идентификатор кодека/Подсказка : MP3
Продолжительность : 41 м.
Вид битрейта : Постоянный
Битрейт : 128 Кбит/сек
Каналы : 2 канала
Частота : 48,0 КГц
Метод сжатия : С потерями
Размер потока : 38,0 Мбайт (7%)
Выравнивание : Разделение по промежуткам
Продолжительность промежутка : 40 мс. (1,00 видеокадр)
Время предзагрузки промежутка : 500 мс.

Постеры

Соцсети

 

Статистика

Автор: Солнышко
Добавлен: 14 мар 2018, 23:47
Размер: 543.45 МБ
Размер: 569 852 960 байт
Сидеров: 0
Личеров: 0
Скачали: 0
Здоровье: 0%
Скорость скачивания: 0 байт/сек
Скорость раздачи: 0 байт/сек
Последний сидер: Нет
Последний личер: Нет
Приватный: Нет (DHT включён)
Скачать торрент
Скачать торрент
[ Размер 11.07 КБ / Просмотров 0 ]

Поделиться



  • Похожие торренты
    Ответы
    Просмотры
    Последнее сообщение

Вернуться в Биографии / Личности