Земля фантазии Алана Мура / The mindscape of Alan Moore (Дез Вайленз/DeZ Vylenz) [2003, Документальный, DVDRip]

Торрент Сидеров Личеров Размер
torrent_4592642.torrent
0 0 1.36 ГБ
Аватара пользователя
Солнышко
Сообщения: 22944
Зарегистрирован: 13 янв 2016, 22:10

Земля фантазии Алана Мура / The mindscape of Alan Moore (Дез Вайленз/DeZ Vylenz) [2003, Документальный, DVDRip]

Сообщение Солнышко » 18 мар 2018, 20:43

Земля фантазии Алана Мура / The mindscape of Alan Moore
Год выпуска: 2003
Страна: UK
Жанр: Документальный
Продолжительность: 01:17:44
Перевод: Субтитры (Сергей Карпов)
Режиссер: Дез Вайленз/DeZ Vylenz
Описание: Алан Мур, всемирно известный автор таких культовых комиксов, как "Хранители" и "В значит Вендетта", сидя на психоделическом фоне, рассказывает об их создании, своей юности, почему он стал магом, а также о взглядах на религии, славу и почему культура превратится в пар.
Сэмпл: http://multi-up.com/924465
качество: DVDRip
формат: AVI
Видео: DivX 5, 720x402, 16:9, 2054 Кбит/сек, 25,000 кадров/сек
Аудио: AC-3, 448 Кбит/сек, 48,0 КГц, 6 каналов
Общее
Полное имя : E:\Мои документы\Мои видеозаписи\Переводы\Земля фантазии Алана Мура\The mindscape of Alan Moore.avi
Формат : AVI
Формат/Информация : Audio Video Interleave
Размер файла : 1,36 Гбайт
Продолжительность : 1 ч. 17 м.
Общий поток : 2511 Кбит/сек
Видео
Идентификатор : 0
Формат : MPEG-4 Visual
Профиль формата : Simple@L1
Параметр BVOP формата : Нет
Параметр QPel формата : Нет
Параметр GMC формата : Без точки перехода
Параметр матрицы формата : Default (H.263)
Идентификатор кодека : DX50
Идентификатор кодека/Подсказка : DivX 5
Продолжительность : 1 ч. 17 м.
Битрейт : 2054 Кбит/сек
Ширина : 720 пикселей
Высота : 402 пикселя
Соотношение сторон : 16:9
Частота кадров : 25,000 кадров/сек
Цветовое пространство : YUV
Субдискретизация насыщенности : 4:2:0
Битовая глубина : 8 бит
Тип развёртки : Прогрессивная
Метод сжатия : С потерями
Бит/(Пиксели*Кадры) : 0.284
Размер потока : 1,12 Гбайт (82%)
Библиотека кодирования : Lavc51.40.4
Аудио
Идентификатор : 1
Формат : AC-3
Формат/Информация : Audio Coding 3
Расширение режима : CM (complete main)
Параметр Endianness формата : Big
Идентификатор кодека : 2000
Продолжительность : 1 ч. 17 м.
Продолжительность оригинала : 1 ч. 17 м.
Вид битрейта : Постоянный
Битрейт : 448 Кбит/сек
Каналы : 6 каналов
Расположение каналов : Front: L C R, Side: L R, LFE
Частота : 48,0 КГц
Битовая глубина : 16 бит
Метод сжатия : С потерями
Размер потока : 249 Мбайт (18%)
Выравнивание : Соединение по промежуткам
Продолжительность промежутка : 40 мс. (1,00 видеокадр)

У вас нет необходимых прав для просмотра вложений в этом сообщении.