Жизнь и судьба артиста Михаила Ульянова (Ольга Каменкова) [2007, Документальный, биография, искусство, SATRip]

Торрент Сидеров Личеров Размер
torrent_4698105.torrent
0 0 457.01 МБ
Аватара пользователя
Солнышко
Сообщения: 22944
Зарегистрирован: 13 янв 2016, 22:10

Жизнь и судьба артиста Михаила Ульянова (Ольга Каменкова) [2007, Документальный, биография, искусство, SATRip]

Сообщение Солнышко » 18 мар 2018, 20:44

Жизнь и судьба артиста Михаила Ульянова
Год выпуска: 2007
Страна: Россия, ООО "Плазма вижн"
Жанр: Документальный, биография, искусство
Продолжительность: 00:39:01
Перевод: Не требуется
Режиссер: Ольга Каменкова
Описание: Фурцева топала ногами, запрещая Ульянову играть стукачей и предателей – как он может, он ведь Ленина играет! Он играл и Ленина, и Жукова, и председателя, и Цезаря, и Понтия Пилата. О каких ролях мечтал Михаил Ульянов? Чего не хватало обласканному властью и любимому зрителем актеру, режиссеру, руководителю театра?
качество: SATRip
формат: AVI
Видео: XviD, 1500 Кбит/с, 640x480, 25 к/с
Аудио: MP3, 2 ch, 128 Кбит/с, 48 КГц

Код: Выделить всё

General
Complete name                            : D:\TV\Jiznj.i.sudjba.artista.Mihaila.Uljjanova.2007.SATRip.avi
Format                                   : AVI
Format/Info                              : Audio Video Interleave
File size                                : 457 MiB
Duration                                 : 39mn 1s
Overall bit rate                         : 1 638 Kbps
Writing application                      : VirtualDubMod 1.5.10.2 (build 2540/release)
Writing library                          : VirtualDubMod build 2540/release
Video
ID                                       : 0
Format                                   : MPEG-4 Visual
Format profile                           : Advanced Simple@L5
Format settings, BVOP                    : 2
Format settings, QPel                    : No
Format settings, GMC                     : No warppoints
Format settings, Matrix                  : Default (MPEG)
Codec ID                                 : XVID
Codec ID/Hint                            : XviD
Duration                                 : 39mn 1s
Bit rate                                 : 1 500 Kbps
Width                                    : 640 pixels
Height                                   : 480 pixels
Display aspect ratio                     : 4:3
Frame rate                               : 25.000 fps
Color space                              : YUV
Chroma subsampling                       : 4:2:0
Bit depth                                : 8 bits
Scan type                                : Progressive
Compression mode                         : Lossy
Bits/(Pixel*Frame)                       : 0.195
Stream size                              : 419 MiB (92%)
Writing library                          : XviD 1.2.1 (UTC 2008-12-04)
Audio
ID                                       : 1
Format                                   : MPEG Audio
Format version                           : Version 1
Format profile                           : Layer 3
Mode                                     : Joint stereo
Mode extension                           : MS Stereo
Codec ID                                 : 55
Codec ID/Hint                            : MP3
Duration                                 : 39mn 1s
Bit rate mode                            : Constant
Bit rate                                 : 128 Kbps
Channel(s)                               : 2 channels
Sampling rate                            : 48.0 KHz
Compression mode                         : Lossy
Stream size                              : 35.7 MiB (8%)
Alignment                                : Aligned on interleaves
Interleave, duration                     : 40 ms (1.00 video frame)
Interleave, preload duration             : 504 ms
Writing library                          : LAME3.99r
Encoding settings                        : -m j -V 4 -q 3 -lowpass 17 -b 128

У вас нет необходимых прав для просмотра вложений в этом сообщении.