Ольга Кормухина и Алексей Белов в программе «Свои люди» (Эфир от 23.05.2015) [2015, Ток-Шоу, Документальный, DVB]

Торрент Сидеров Личеров Размер
torrent_5011538.torrent
0 0 951.33 МБ
Аватара пользователя
Солнышко
Сообщения: 22944
Зарегистрирован: 13 янв 2016, 22:10

Ольга Кормухина и Алексей Белов в программе «Свои люди» (Эфир от 23.05.2015) [2015, Ток-Шоу, Документальный, DVB]

Сообщение Солнышко » 18 мар 2018, 20:45

Ольга Кормухина и Алексей Белов в программе «Свои люди» (Эфир от 23.05.2015)
Страна: Россия
Жанр: Ток-Шоу, Документальный
Продолжительность: 00:44:07
Язык: Русский
Год выпуска: 2015 г.
Выпущено: Россия, Телеканал "Доверие. Москва".
Описание: Ведущий программы “Свои люди” Василий Соловьев побывал в гостях у знаменитой рок-семьи - певицы Ольги Кормухиной и музыканта Алексея Белова.
Как начиналась и чем закончилась история успеха легендарной группы “Парк Горького”? Что общего между русской классикой и российским роком? Чем отличается музыка широкого потребления от того, что создают герои программы? Звезды показали ведущему свою домашнюю звукозаписывающую студию, а за чаепитием много говорили о музыке, успехе и духовных ценностях.
Источник: Собственный рип
Доп. информация: Рип чистый. Без посторонних надписей. Выкладывается как есть.

Качество: DVB
Контейнер: MPEG-PS
Видео кодек: MPEG2
Аудио кодек: MPEG1
Видео: MPEG2 768x576 (4:3) 25.000fps 2 763 Kbps, 0.250 bit/pixel
Аудио: MPEG1 48000Hz stereo 192 Кбит/сек
Общее
Полное имя : G:\Раздачи\Ольга Кормухина\Ольга Кормухина и Алексей Белов в программе Свои люди(2015, Ток-Шоу, Документальный, Эфир от 23.05.2015, DVB) (Nokia5150).mpg
Формат : MPEG-PS
Размер файла : 951 Мбайт
Продолжительность : 44 м.
Режим общего битрейта : Переменный
Общий поток : 3015 Кбит/сек
Видео
Идентификатор : 224 (0xE0)
Формат : MPEG Video
Версия формата : Version 2
Профиль формата : Main@High 1440
Параметр BVOP формата : Нет
Параметр матрицы формата : По умолчанию
Параметр GOP формата : N=12
Продолжительность : 44 м.
Вид битрейта : Переменный
Битрейт : 2763 Кбит/сек
Максимальный битрейт : 9000 Кбит/сек
Ширина : 768 пикселей
Высота : 576 пикселей
Соотношение сторон : 4:3
Частота кадров : 25,000 кадров/сек
Цветовое пространство : YUV
Субдискретизация насыщенности : 4:2:0
Битовая глубина : 8 бит
Тип развёртки : Прогрессивная
Метод сжатия : С потерями
Бит/(Пиксели*Кадры) : 0.250
Временной код первого кадра : 00:00:00:00
Оригинал временного кода : Group of pictures header
Размер потока : 872 Мбайт (92%)
Аудио
Идентификатор : 192 (0xC0)
Формат : MPEG Audio
Версия формата : Version 1
Профиль формата : Layer 2
Продолжительность : 44 м.
Вид битрейта : Постоянный
Битрейт : 192 Кбит/сек
Каналы : 2 канала
Частота : 48,0 КГц
Метод сжатия : С потерями
Размер потока : 60,6 Мбайт (6%)

У вас нет необходимых прав для просмотра вложений в этом сообщении.