Элизабет Тейлор / Elizabeth Taylor: Auction of a lifetime (Майкл Вальдман / Michael Waldman) [2012, Документальный, HDTV

Торрент Сидеров Личеров Размер
torrent_4238524.torrent
0 0 1.03 ГБ
Аватара пользователя
Солнышко
Сообщения: 22944
Зарегистрирован: 13 янв 2016, 22:10

Элизабет Тейлор / Elizabeth Taylor: Auction of a lifetime (Майкл Вальдман / Michael Waldman) [2012, Документальный, HDTV

Сообщение Солнышко » 18 мар 2018, 20:45

Элизабет Тейлор / Elizabeth Taylor: Auction of a lifetime
Год выпуска: 2012
Страна: Великобритания
Студия: Silver river productions
Жанр: Документальный
Продолжительность: 01:11:55
Перевод: Профессиональный (двухголосый) SET
Русские субтитры: нет
Режиссер: Майкл Вальдман / Michael Waldman
Описание: Этот документальный фильм рассказывает о жизни восхитительной Элизабет Тэйлор сквозь призму бесценных драгоценностей, когда-то принадлежавших звезде, а теперь продающихся на аукционах Нью-Йорка и Лондона.
Качество: HDTVRip
Формат: AVI
Видео кодек: DivX
Аудио кодек: AC3
Видео: DivX 5 720x400 (16:9) 25.000fps Bit rate 1848Kbps Bits/(Pixel*Frame) 0.257
Аудио: Dolby AC3 48000Hz 2ch 192 Kbps
General
Complete name : D:\Torrent\Elizabeth.Tailor.HDTV.rip_vedigo.avi
Format : AVI
Format/Info : Audio Video Interleave
File size : 1.03 GiB
Duration : 1h 11mn
Overall bit rate : 2 050 Kbps
Writing library : VirtualDub build 32842/release
Video
ID : 0
Format : MPEG-4 Visual
Format settings, BVOP : Yes
Format settings, QPel : No
Format settings, GMC : No warppoints
Format settings, Matrix : Default (H.263)
Muxing mode : Packed bitstream
Codec ID : DX50
Codec ID/Hint : DivX 5
Duration : 1h 11mn
Bit rate : 1 848 Kbps
Width : 720 pixels
Height : 400 pixels
Display aspect ratio : 16:9
Frame rate : 25.000 fps
Color space : YUV
Chroma subsampling : 4:2:0
Bit depth : 8 bits
Scan type : Progressive
Bits/(Pixel*Frame) : 0.257
Stream size : 951 MiB (90%)
Writing library : DivX 6.8.5 (UTC 2009-08-20)
Audio
ID : 1
Format : AC-3
Format/Info : Audio Coding 3
Mode extension : CM (complete main)
Codec ID : 2000
Duration : 1h 11mn
Bit rate mode : Constant
Bit rate : 192 Kbps
Channel(s) : 2 channels
Channel positions : Front: L R
Sampling rate : 48.0 KHz
Bit depth : 16 bits
Stream size : 98.8 MiB (9%)
Alignment : Aligned on interleaves
Interleave, duration : 40 ms (1.00 video frame)
Interleave, preload duration : 512 ms
У вас нет необходимых прав для просмотра вложений в этом сообщении.