Времена Харви Милка / The Times of Harvey Milk (Роб Эпстайн / Rob Epstein) [1984, США, документальный, биография, истори

Торрент Сидеров Личеров Размер
torrent_4589171.torrent
0 0 3.66 ГБ
Аватара пользователя
Солнышко
Сообщения: 22944
Зарегистрирован: 13 янв 2016, 22:10

Времена Харви Милка / The Times of Harvey Milk (Роб Эпстайн / Rob Epstein) [1984, США, документальный, биография, истори

Сообщение Солнышко » 18 мар 2018, 20:46

Времена Харви Милка / The Times of Harvey Milk
Страна: США
Жанр: документальный, биография, история
Год выпуска: 1984
Продолжительность: 1.28.11
Перевод: Авторский (одноголосый закадровый) А.Алексеев
Субтитры: нет
Оригинальная аудиодорожка: английский
Режиссер: Роб Эпстайн / Rob Epstein
В ролях: Харви Милк (архивные записи), Джордж Москоне (архивные записи), Дэн Уайт (архивные записи), Джон Бриггс (архивные записи), Дайэнн Файнстайн (архивные записи), Энн Кроненберг, Тори Хартман, Салли Герхард, Джим Эллиот, Генри Дер и др.
Wikipedia
Описание: Харви Милк лидер гей-движения в Калифорнии 70-х годов стал первым в истории США политиком, открыто заявившим, что он гей, и победившим после этого на выборах. В 1977 году Милк был избран членом наблюдательного совета Сан-Франциско. Однако 27 ноября 1978 года его жизнь оборвалась: бывший член наблюдательного совета Дэн Уайт расстрелял Милка вместе с мэром Сан-Франциско Джорджем Москоне прямо в здании муниципалитета...
Харви Милк считается выдающейся исторической личностью в США. Он был назван журналом Time в числе «100 героев XX столетия», в современной Калифорнии официально празднуют День Харви Милка 22 мая в день его рождения. Харви Милк посмертно был награждён высшей наградой США — орденом Свободы, награду родственникам Милка вручил Президент США Барак Обама.
В своём документальном фильме Роб Эпстайн воспроизводит историю жизни Харви Милка, переданную в рассказах его современников — участников и свидетелей драматических событий в Сан-Франциско 1970-х годов.
Помимо воспоминаний друзей и соратников Милка, в фильме использовано множество архивных документальных кадров: интервью с Харви Милком и мэром Джорджем Москоне, интервью с Дэном Уайтом, который впоследствии стал их убийцей.
В фильме показаны кадры, снятые в здании муниципалитета Сан-Франциско сразу после убийства Милка и мэра Москоне, хроникальные кадры массовых выступлений в Сан-Франциско: многотысячное поминальное шествие 27 ноября 1978 года вечером после убийства, хроника массовых беспорядков 21 мая 1979 года — «бунта „Белой ночи“» — после вынесения неожиданно мягкого приговора Дэну Уайту, а также множество других исторических видеозаписей.
Весь этот материал выстроен в хронологическом порядке и даёт возможность последовательно проследить за ходом тех исторических событий «Времён Харви Милка».
В 1984 году «The Times of Harvey Milk» получил премию Оскар, как лучший документальный фильм.
Сэмпл: http://sendfile.su/896332
Тип релиза: BDRip 720p
Контейнер: MKV
Видео: AVC 960x720pix 4:3 4249 Kbps 23.976 fps
Аудио: Russian AC3 2ch 48.0 KHz 192 Kbps А.Алексеев
Аудио 2: English DTS 2ch 48.0 KHz 1 509 Kbps
General
Unique ID : 97413296022407951855357661464620099299 (0x49491E4E17C0D2ED172A7559FEE2E6E3)
Complete name : /home/alexandr/www/The.Times.of.Harvey.Milk.1984.BluRay.720p.x264.DTS.mkv
Format : Matroska
Format version : Version 4 / Version 2
File size : 3.66 GiB
Duration : 1h 28mn
Overall bit rate : 5 949 Kbps
Encoded date : UTC 2013-11-14 19:22:44
Writing application : mkvmerge v6.3.0 ('You can't stop me!') built on Jun 29 2013 11:48:33
Writing library : libebml v1.3.0 + libmatroska v1.4.0
Video
ID : 1
Format : AVC
Format/Info : Advanced Video Codec
Format profile : High@L4.1
Format settings, CABAC : Yes
Format settings, ReFrames : 8 frames
Codec ID : V_MPEG4/ISO/AVC
Duration : 1h 28mn
Bit rate : 4 249 Kbps
Width : 960 pixels
Height : 720 pixels
Display aspect ratio : 4:3
Frame rate mode : Constant
Frame rate : 23.976 fps
Color space : YUV
Chroma subsampling : 4:2:0
Bit depth : 8 bits
Scan type : Progressive
Bits/(Pixel*Frame) : 0.256
Stream size : 2.54 GiB (69%)
Writing library : x264 core 116 r2057 0ba8a9c
Encoding settings : cabac=1 / ref=8 / deblock=1:-2:-2 / analyse=0x3:0x133 / me=umh / subme=9 / psy=1 / psy_rd=1.20:0.20 / mixed_ref=1 / me_range=16 / chroma_me=1 / trellis=2 / 8x8dct=1 / cqm=0 / deadzone=21,11 / fast_pskip=1 / chroma_qp_offset=-3 / threads=12 / sliced_threads=0 / nr=0 / decimate=0 / interlaced=0 / bluray_compat=0 / constrained_intra=0 / bframes=3 / b_pyramid=2 / b_adapt=2 / b_bias=0 / direct=3 / weightb=1 / open_gop=0 / weightp=2 / keyint=250 / keyint_min=2 / scenecut=40 / intra_refresh=0 / rc_lookahead=60 / rc=2pass / mbtree=1 / bitrate=4249 / ratetol=1.0 / qcomp=0.60 / qpmin=10 / qpmax=51 / qpstep=4 / cplxblur=20.0 / qblur=0.5 / vbv_maxrate=38000 / vbv_bufsize=38000 / nal_hrd=none / ip_ratio=1.40 / aq=1:1.00
Language : English
Default : Yes
Forced : No
Audio #1
ID : 2
Format : AC-3
Format/Info : Audio Coding 3
Mode extension : CM (complete main)
Format settings, Endianness : Big
Codec ID : A_AC3
Duration : 1h 28mn
Bit rate mode : Constant
Bit rate : 192 Kbps
Channel count : 2 channels
Channel positions : Front: L R
Sampling rate : 48.0 KHz
Bit depth : 16 bits
Compression mode : Lossy
Stream size : 121 MiB (3%)
Title : А.Алексеев
Language : Russian
Default : Yes
Forced : No
Audio #2
ID : 3
Format : DTS
Format/Info : Digital Theater Systems
Mode : 16
Format settings, Endianness : Big
Codec ID : A_DTS
Duration : 1h 28mn
Bit rate mode : Constant
Bit rate : 1 509 Kbps
Channel count : 2 channels
Channel positions : Front: L R
Sampling rate : 48.0 KHz
Bit depth : 24 bits
Compression mode : Lossy
Stream size : 952 MiB (25%)
Title : English
Language : English
Default : No
Forced : No
У вас нет необходимых прав для просмотра вложений в этом сообщении.