Запечатленное время. 300 лет Дома Романовых. Хроника торжеств 1913 года. (Алексей Артемьев, Денис Марковцев) [2013, Доку

Торрент Сидеров Личеров Размер
torrent_4368985.torrent
0 0 389.97 МБ
Аватара пользователя
Солнышко
Сообщения: 22944
Зарегистрирован: 13 янв 2016, 22:10

Запечатленное время. 300 лет Дома Романовых. Хроника торжеств 1913 года. (Алексей Артемьев, Денис Марковцев) [2013, Доку

Сообщение Солнышко » 18 мар 2018, 20:47

Запечатленное время. 300 лет Дома Романовых. Хроника торжеств 1913 года.
Год выпуска: 2013
Страна: Россия
Жанр: Документальный фильм
Продолжительность: 0:26:02
Перевод: Не требуется
Русские субтитры: нет
Режиссер: Алексей Артемьев, Денис Марковцев
Описание: В 1913 году вышел фильм о праздновании Дома Романовых. Хорошо известна его меньшая, хроникальная часть, запечатлевшая торжества по поводу 300-летия царствующего дома. Но почти никто из современных зрителей не видел игровые реконструкции из жизни династии Романовых, ставшие основой этого фильма.
Ведущий - Виктор Баталин, начальник отдела научно-справочного аппарата Российского государственного архива кинофотодокументов.
Эксперт - Эдуард Чукашев, историк, публицист, издатель, председатель московского клуба военно-исторической миниатюры.
качество: IPTVRip
формат: AVI
видеокодек: XviD
аудиокодек: MP3
Видео: Xvid, 688x560, 4:3, 1947 Kbps, 50fps
Аудио: MP3, 128 Kbps, 48.0 KHz, 2Ch
General
Format : AVI
Format/Info : Audio Video Interleave
File size : 390 MiB
Duration : 26mn 2s
Overall bit rate : 2 094 Kbps
Video
ID : 0
Format : MPEG-4 Visual
Format profile : Advanced Simple@L4
Format settings, BVOP : 2
Format settings, QPel : No
Format settings, GMC : No warppoints
Format settings, Matrix : Default (H.263)
Codec ID : DIVX
Codec ID/Info : Project Mayo
Codec ID/Hint : DivX 4
Duration : 26mn 2s
Bit rate : 1 947 Kbps
Width : 688 pixels
Height : 560 pixels
Display aspect ratio : 1.229
Frame rate : 50.000 fps
Color space : YUV
Chroma subsampling : 4:2:0
Bit depth : 8 bits
Scan type : Progressive
Compression mode : Lossy
Bits/(Pixel*Frame) : 0.101
Stream size : 363 MiB (93%)
Writing library : XviD 64
Audio
ID : 1
Format : MPEG Audio
Format version : Version 1
Format profile : Layer 3
Codec ID : 55
Codec ID/Hint : MP3
Duration : 26mn 1s
Source duration : 26mn 1s
Bit rate mode : Constant
Bit rate : 128 Kbps
Channel(s) : 2 channels
Sampling rate : 48.0 KHz
Compression mode : Lossy
Stream size : 23.8 MiB (6%)
Alignment : Aligned on interleaves
Interleave, duration : 24 ms (1.20 video frame)
У вас нет необходимых прав для просмотра вложений в этом сообщении.