Родина или смерть! (Фидель Кастро) (Эстелла Браво) [1999, документальный, DVDRip]

Торрент Сидеров Личеров Размер
torrent_2989594.torrent
0 0 700.87 МБ
Аватара пользователя
Солнышко
Сообщения: 22944
Зарегистрирован: 13 янв 2016, 22:10

Родина или смерть! (Фидель Кастро) (Эстелла Браво) [1999, документальный, DVDRip]

Сообщение Солнышко » 18 мар 2018, 20:48

Родина или смерть! (Фидель Кастро)
Год выпуска: 1999
Страна: Куба
Жанр: документальный
Продолжительность: 1:17:46
Перевод: Профессиональный (одноголосый)
Русские субтитры: нет
Режиссер: Эстелла Браво
Описание: Фидель Кастро. И сегодня это имя продолжает вызывать ожесточённые споры среди сторонников и противников социализма. Что это за человек? Как ему удалось устоять в то время, когда в начале 90-х годов рушились страны реального социализма в Европе?
Мы предлагаем вашему вниманию фильм Эстеллы Браво, снятый в 1999-м году. Она родилась в Нью-Йорке, вышла замуж за аргентинца, и с 60-х годов живёт на Кубе. И потому ей есть, что сравнивать. И потому ей есть, с кем сравнивать. Она имела возможность долгие годы лично общаться с Фиделем. И потому мы предлагаем вам того Фиделя, которого вы ещё не видели.
Доп. информация:
Рип сделан с релиза.
Отличия от раздачи:Выше разрешение.
Кодек x264.
[*]Звук в формате Ogg Vorbis и выше качеством.Качество: VHSRip
Формат: MKV
Видео кодек: H.264
Аудио кодек: OGG Vorbis
Видео: 720x576, 25 fps, x264 core 93 ~1171 Kbps, 0.113 bit/pixel
Аудио: 44.1 KHz, Ogg Vorbis, 2 ch, ~64kbps
General
Complete name : Rodina_ili_smert.mkv
Format : Matroska
File size : 701 MiB
Duration : 1h 17mn
Overall bit rate : 1 260 Kbps
Encoded date : UTC 2010-05-23 16:00:50
Writing application : mkvmerge v3.3.0 ('Language') built on May 23 2010 09:17:37
Writing library : libebml v0.7.8 + libmatroska v0.8.1
Video
ID : 1
Format : AVC
Format/Info : Advanced Video Codec
Format profile : High@L3.0
Format settings, CABAC : Yes
Format settings, ReFrames : 5 frames
Muxing mode : Container profile=Unknown@3.0
Codec ID : V_MPEG4/ISO/AVC
Duration : 1h 17mn
Bit rate : 1 171 Kbps
Nominal bit rate : 1 205 Kbps
Width : 720 pixels
Height : 576 pixels
Display aspect ratio : 4/3
Frame rate : 25.000 fps
Standard : PAL
Resolution : 24 bits
Colorimetry : 4:2:0
Scan type : Progressive
Bits/(Pixel*Frame) : 0.113
Stream size : 651 MiB (93%)
Writing library : x264 core 93
Encoding settings : cabac=1 / ref=5 / deblock=1:0:0 / analyse=0x3:0x133 / me=umh / subme=9 / psy=1 / psy_rd=1.00:0.00 / mixed_ref=1 / me_range=16 / chroma_me=1 / trellis=2 / 8x8dct=1 / cqm=0 / deadzone=21,11 / fast_pskip=0 / chroma_qp_offset=-2 / threads=2 / sliced_threads=0 / nr=0 / decimate=0 / interlaced=0 / constrained_intra=0 / bframes=3 / b_pyramid=2 / b_adapt=1 / b_bias=0 / direct=3 / wpredb=1 / wpredp=2 / keyint=250 / keyint_min=25 / scenecut=40 / intra_refresh=0 / rc_lookahead=40 / rc=2pass / mbtree=1 / bitrate=1205 / ratetol=1.0 / qcomp=0.60 / qpmin=10 / qpmax=51 / qpstep=4 / cplxblur=20.0 / qblur=0.5 / ip_ratio=1.40 / aq=1:1.00
Audio
ID : 2
Format : Vorbis
Format settings, Floor : 1
Codec ID : A_VORBIS
Duration : 1h 17mn
Bit rate mode : Constant
Bit rate : 64.0 Kbps
Channel(s) : 2 channels
Sampling rate : 44.1 KHz
Stream size : 35.6 MiB (5%)
Writing library : libVorbis (Everywhere) (20100325 (Everywhere))
У вас нет необходимых прав для просмотра вложений в этом сообщении.