Джастин Бибер: Believe / Justin Bieber's Believe (Джон М. Чу / Jon M. Chu) [2013, Документальный фильм, SATRip]

Торрент Сидеров Личеров Размер
torrent_4973434.torrent
0 0 771.07 МБ
Аватара пользователя
Солнышко
Сообщения: 22944
Зарегистрирован: 13 янв 2016, 22:10

Джастин Бибер: Believe / Justin Bieber's Believe (Джон М. Чу / Jon M. Chu) [2013, Документальный фильм, SATRip]

Сообщение Солнышко » 18 мар 2018, 20:48

Джастин Бибер: Believe / Justin Bieber's Believe
Дата/Год выпуска: 2013
Страна: США
Жанр: Документальный фильм
Продолжительность: 01:23:24
Перевод: Субтитры
Русские субтитры: есть
Формат субтитров: hardsub (неотключаемые)
Оригинальная аудиодорожка: английский
Режиссер: Джон М. Чу / Jon M. Chu
Описание: Концертный фильм нынешнего кумира молодежи Джастина Бибера
SATRip от : Твид
Доп. информация: Любезно предоставлено клубом Fenix
Сэмпл: http://multi-up.com/1040886
качество: SATRip
формат: AVI
Видео: XviD, 1158 kb/s, 704x448, 25 fps, 0.147 bits/pixel
Аудио: 0x0055(MP3) ID'd as MPEG-1 Layer 3, 128 kb/s (2/ch, stereo) CBR, 48000 Hz - Английский

Код: Выделить всё

Общее
Полное имя                               : D:\Fillms-1\Dzhastin Biber.SAT-rip.by.Твид.fenixclub.avi
Формат                                   : AVI
Формат/Информация                        : Audio Video Interleave
Размер файла                             : 771 Мбайт
Продолжительность                        : 1 ч. 23 м.
Общий поток                              : 1293 Кбит/сек
Программа кодирования                    : VirtualDubMod 1.5.10.2 (build 2540/release)
Библиотека кодирования                   : VirtualDub build 30009/release
Видео
Идентификатор                            : 0
Формат                                   : MPEG-4 Visual
Профиль формата                          : Simple@L3
Параметр BVOP формата                    : 2
Параметр QPel формата                    : Нет
Параметр GMC формата                     : Без точки перехода
Параметр матрицы формата                 : Default (H.263)
Идентификатор кодека                     : XVID
Идентификатор кодека/Подсказка           : XviD
Продолжительность                        : 1 ч. 23 м.
Битрейт                                  : 1155 Кбит/сек
Ширина                                   : 704 пикселя
Высота                                   : 448 пикселей
Соотношение сторон                       : 16:10
Частота кадров                           : 25,000 кадров/сек
Цветовое пространство                    : YUV
Субдискретизация насыщенности            : 4:2:0
Битовая глубина                          : 8 бит
Тип развёртки                            : Прогрессивная
Метод сжатия                             : С потерями
Бит/(Пиксели*Кадры)                      : 0.146
Размер потока                            : 689 Мбайт (89%)
Библиотека кодирования                   : XviD 1.0.0 RC4 (Hola) (UTC 2004-04-05)
Аудио
Идентификатор                            : 1
Формат                                   : MPEG Audio
Версия формата                           : Version 1
Профиль формата                          : Layer 3
Режим                                    : Joint stereo
Расширение режима                        : MS Stereo
Идентификатор кодека                     : 55
Идентификатор кодека/Подсказка           : MP3
Продолжительность                        : 1 ч. 23 м.
Вид битрейта                             : Постоянный
Битрейт                                  : 128 Кбит/сек
Каналы                                   : 2 канала
Частота                                  : 48,0 КГц
Метод сжатия                             : С потерями
Размер потока                            : 76,3 Мбайт (10%)
Выравнивание                             : Разделение по промежуткам
Продолжительность промежутка             : 40  мс. (1,00 видеокадр)
Время предзагрузки промежутка            : 500  мс.
У вас нет необходимых прав для просмотра вложений в этом сообщении.