Суровый мир моды. Жизнь Перси Сэвиджа / Перси Сэвидж / A Savage Life in Fashion / Percy Savage (Уинстон Катберт / Winsto

Торрент Сидеров Личеров Размер
torrent_4396014.torrent
0 0 1.39 ГБ
Аватара пользователя
Солнышко
Сообщения: 22944
Зарегистрирован: 13 янв 2016, 22:10

Суровый мир моды. Жизнь Перси Сэвиджа / Перси Сэвидж / A Savage Life in Fashion / Percy Savage (Уинстон Катберт / Winsto

Сообщение Солнышко » 18 мар 2018, 20:48

Суровый мир моды. Жизнь Перси Сэвиджа
A Savage Life in Fashion
#77Год выпуска: 2004
Страна: Великобритания
Жанр: документальный, биография, история моды
Продолжительность: 00:49:58
Перевод: Профессиональный (двухголосый закадровый) (по заказу ЗАО "Первый канал. Всемирная сеть")
Русские субтитры: нет
Режиссер: Уинстон Катберт / Winston Cuthbert
Рассказчик: Джоанна Ламли / Joanna Lumley
Описание: Фильм о дизайнере, художнике и публицисте моды Перси Сэвидже / Percy Savage (1926-2008). Влияние Сэвиджа в мире моды было тотальным, но за пределами этой области его имя было известно немногим…
1954 год. Элизабет Тейлор приезжает в Париж на премьеру своего фильма. В отеле неизвестный молодой человек, представившийся PR-директором Lanvin, вручает ей великолепное платье, с условием, что Тейлор наденет его на премьеру. Когда журналисты восхитились нарядом звезды, Тейлор сказала: "Это ведь Lanvin! Разве это не великолепно?". Это был взрыв в модной индустрии. А идея принадлежала Перси Сэвиджу, первому пиарщику моды. Публицист моды, дизайнер, художник, мастер "черного пиара", великолепный рассказчик и бонвиван, Перси Сэвидж в 50-60-е годы был королем PR мировой моды в Париже. Именно он ввел Ива Сен-Лорана в модный дом Диор, именно он создал взрыв под именем Мэри Квант. Ему посвящен знаменитый аромат от Диора "Eau Sauvage"... (анонс канала "Время: далекое и близкое")
Доп. информация: Собственная запись со спутника (канал "Время: далекое и близкое"). В отличие от в данной раздаче другой проф. перевод.
Информация: http://www.imdb.com/title/tt2181801/
Сэмпл: DVB сравнение перевода DVB (предыдущая раздача)
качество: DVB
формат: MPEG-PS
видеокодек: MPEG2
аудиокодек: MP2
Видео: MPEG Video 2, 720x576@768x576 (4:3), 25 fps, ~3702 kbps avg, 0.357 bit/pixel
Аудио: 48 kHz, MPEG Audio 2, 2 ch, ~192.00 kbps avg

Код: Выделить всё

Полное имя                               : H:\My Torrents\[apreder]A_Savage_Life_in_Fashion(2004).mpg
Формат                                   : MPEG-PS
Размер файла                             : 1,39 Гбайт
Продолжительность                        : 49 м.
Режим общего битрейта                    : Переменный
Общий поток                              : 3973 Кбит/сек
Видео
Идентификатор                            : 224 (0xE0)
Формат                                   : MPEG Video
Версия формата                           : Version 2
Профиль формата                          : Main@Main
Параметр BVOP формата                    : Да
Параметр матрицы формата                 : Выборочная
Параметр GOP формата                     : M=3, N=12
Продолжительность                        : 49 м.
Вид битрейта                             : Переменный
Битрейт                                  : 3702 Кбит/сек
Ширина                                   : 720 пикселей
Высота                                   : 576 пикселей
Соотношение сторон                       : 4:3
Частота кадров                           : 25,000 кадров/сек
Стандарт вещания                         : PAL
Цветовое пространство                    : YUV
Субдискретизация насыщенности            : 4:2:0
Битовая глубина                          : 8 бит
Тип развёртки                            : Чересстрочная
Порядок развёртки                        : Верхнее поле первое
Метод сжатия                             : С потерями
Бит/(Пиксели*Кадры)                      : 0.357
Размер потока                            : 1,29 Гбайт (93%)
Аудио
Идентификатор                            : 192 (0xC0)
Формат                                   : MPEG Audio
Версия формата                           : Version 1
Профиль формата                          : Layer 2
Продолжительность                        : 49 м.
Вид битрейта                             : Постоянный
Битрейт                                  : 192 Кбит/сек
Каналы                                   : 2 канала
Частота                                  : 48,0 КГц
Метод сжатия                             : С потерями
Размер потока                            : 68,6 Мбайт (5%)

678/660√
У вас нет необходимых прав для просмотра вложений в этом сообщении.