Перси Сэвидж / Суровый мир моды. Жизнь Перси Сэвиджа / A Savage Life in Fashion / Percy Savage (Уинстон Катберт / Winsto

Торрент Сидеров Личеров Размер
torrent_4395974.torrent
2 3 1.31 ГБ
Аватара пользователя
Солнышко
Сообщения: 22944
Зарегистрирован: 13 янв 2016, 22:10

Перси Сэвидж / Суровый мир моды. Жизнь Перси Сэвиджа / A Savage Life in Fashion / Percy Savage (Уинстон Катберт / Winsto

Сообщение Солнышко » 18 мар 2018, 20:48

Перси Сэвидж
A Savage Life in Fashion
#77Год выпуска: 2004
Страна: Великобритания
Жанр: документальный, биография, история моды
Продолжительность: 00:53:38
Перевод: Профессиональный (двухголосый закадровый) (Продакшн-студия "UIC-media" по заказу канала "24ДОК")
Русские субтитры: нет
Режиссер: Уинстон Катберт / Winston Cuthbert
Рассказчик: Джоанна Ламли / Joanna Lumley
Описание: Предисловие журналистки и телеведущей Анны Монгайт.
Фильм о дизайнере, художнике и публицисте моды Перси Сэвидже / Percy Savage (1926-2008). Он стал родоначальником PR в моде, познакомил Сэн-Лорана с Диором и учредил Лондонскую Неделю Моды. Фильм рассказывает о его блистательной карьере и огромном влиянии на мир моды. В фильме использованы редкие архивные кадры, эксклюзивное интервью с самим Сэвиджем и такими иконами моды как Мэри Куант, Юбер де Живанши, Юки и другими известными дизайнерами, журналистами и историками. (анонс канала "24ДОК")
Доп. информация: Собственная запись со спутника (канал "24ДОК").
Информация: http://www.imdb.com/title/tt2181801/
Сэмпл: http://multi-up.com/848582
качество: DVB
формат: MPEG-PS
видеокодек: MPEG2
аудиокодек: MP2
Видео: MPEG Video 2, 720x576@768x576 (4:3), 25 fps, ~3224 kbps avg, 0.311 bit/pixel
Аудио: 48 kHz, MPEG Audio 2, 2 ch, ~192.00 kbps avg

Код: Выделить всё

Полное имя                               : H:\My Torrents\[apreder]A_Savage_Life_in_Fashion(2004)DVB.mpg
Формат                                   : MPEG-PS
Размер файла                             : 1,31 Гбайт
Продолжительность                        : 53 м.
Режим общего битрейта                    : Переменный
Общий поток                              : 3485 Кбит/сек
Видео
Идентификатор                            : 224 (0xE0)
Формат                                   : MPEG Video
Версия формата                           : Version 2
Профиль формата                          : Main@Main
Параметр BVOP формата                    : Да
Параметр матрицы формата                 : Выборочная
Параметр GOP формата                     : M=3, N=36
Продолжительность                        : 53 м.
Вид битрейта                             : Переменный
Битрейт                                  : 3224 Кбит/сек
Ширина                                   : 720 пикселей
Высота                                   : 576 пикселей
Соотношение сторон                       : 4:3
Частота кадров                           : 25,000 кадров/сек
Стандарт вещания                         : PAL
Цветовое пространство                    : YUV
Субдискретизация насыщенности            : 4:2:0
Битовая глубина                          : 8 бит
Тип развёртки                            : Чересстрочная
Порядок развёртки                        : Верхнее поле первое
Метод сжатия                             : С потерями
Бит/(Пиксели*Кадры)                      : 0.311
Размер потока                            : 1,21 Гбайт (93%)
Аудио
Идентификатор                            : 192 (0xC0)
Формат                                   : MPEG Audio
Версия формата                           : Version 1
Профиль формата                          : Layer 2
Продолжительность                        : 53 м.
Вид битрейта                             : Постоянный
Битрейт                                  : 192 Кбит/сек
Каналы                                   : 2 канала
Частота                                  : 48,0 КГц
Метод сжатия                             : С потерями
Размер потока                            : 73,7 Мбайт (6%)

677/659√
У вас нет необходимых прав для просмотра вложений в этом сообщении.