Катуша. Трагическая судьба топ-модели / Katoucha, le destin tragique d'un top model (Жан Люре / Jean Luret) [2009, докум

Торрент Сидеров Личеров Размер
torrent_4547957.torrent
0 0 1.08 ГБ
Аватара пользователя
Солнышко
Сообщения: 22944
Зарегистрирован: 13 янв 2016, 22:10

Катуша. Трагическая судьба топ-модели / Katoucha, le destin tragique d'un top model (Жан Люре / Jean Luret) [2009, докум

Сообщение Солнышко » 18 мар 2018, 20:48

Катуша. Трагическая судьба топ-модели
Katoucha, le destin tragique d'un top model
#77Год выпуска: 2009
Страна: Франция
Жанр: документальный, биография
Продолжительность: 00:51:36
Перевод: Профессиональный (двухголосый закадровый) (по заказу ЗАО "Первый канал. Всемирная сеть")
Русские субтитры: нет
Режиссер: Жан Люре / Jean Luret
В ролях: Николь Кальфан / Nicole Calfan, Жерар Депардье / Gérard Depardieu, Карла Бруни / Carla Bruni
Описание: На протяжении долгого времени Катуша Ниан (Katoucha Niane) была символом чернокожей топ-модели, которой удалось добиться успеха в Париже. Наполовину гвинейка, наполовину сенегалка, она быстро превратилась в икону подиума, а в 90-е стала музой Сен-Лорана...
Катуша выступала против женского обрезания – жестокого обряда, до сих пор существующего в ряде африканских стран. После своего успеха в мире моды, она основала организацию KPLCE, борющуюся с варварским обычаем, выросшим на почве религии. Сама Ниан рассказала, что в девять лет ее подвергли операции по удалению клитора и половых губ. В своей книге под названием "В моей плоти", изданной в 2007-м, она рассказывает о том, что ее решение стать топ-моделью отчасти стало местью за перенесенное страдание.
Катуша познала славу, вкус легких денег, иллюзорные почести и... забытье в расцвете лет от алкоголя и наркотиков... 28 февраля 2008 года тело Катуши было найдено в Сене. Ей было 47 лет... Что это было — самоубийство, убийство, или несчастный случай, до сих пор неизвестно.
Доп. информация: Запись со спутника (телеканал "24ДОК").Сэмпл: http://multi-up.com/908069
качество: DVB
формат: MPEG-PS
Видео: MPEG Video 2, 720x576@768x576 (4:3), 25 fps, ~2737 kbps avg, 0.264 bit/pixel
Аудио: 48 kHz, MPEG Audio 2, 2 ch, ~192.00 kbps avg

Код: Выделить всё

Полное имя                               : H:\My Torrents\[apreder]Katoucha_le_destin_tragique_d'un_top_model(2009)DVB.mpg
Формат                                   : MPEG-PS
Размер файла                             : 1,08 Гбайт
Продолжительность                        : 51 м.
Режим общего битрейта                    : Переменный
Общий поток                              : 2988 Кбит/сек
Видео
Идентификатор                            : 224 (0xE0)
Формат                                   : MPEG Video
Версия формата                           : Version 2
Профиль формата                          : Main@Main
Параметр BVOP формата                    : Да
Параметр матрицы формата                 : Выборочная
Параметр GOP формата                     : M=3, N=12
Продолжительность                        : 51 м.
Вид битрейта                             : Переменный
Битрейт                                  : 2737 Кбит/сек
Ширина                                   : 720 пикселей
Высота                                   : 576 пикселей
Соотношение сторон                       : 4:3
Частота кадров                           : 25,000 кадров/сек
Стандарт вещания                         : PAL
Цветовое пространство                    : YUV
Субдискретизация насыщенности            : 4:2:0
Битовая глубина                          : 8 бит
Тип развёртки                            : Чересстрочная
Порядок развёртки                        : Верхнее поле первое
Метод сжатия                             : С потерями
Бит/(Пиксели*Кадры)                      : 0.264
TimeCode_FirstFrame                      : 00:00:00:00
TimeCode_Source                          : Group of pictures header
Размер потока                            : 1011 Мбайт (92%)
Аудио
Идентификатор                            : 192 (0xC0)
Формат                                   : MPEG Audio
Версия формата                           : Version 1
Профиль формата                          : Layer 2
Продолжительность                        : 51 м.
Вид битрейта                             : Постоянный
Битрейт                                  : 192 Кбит/сек
Каналы                                   : 2 канала
Частота                                  : 48,0 КГц
Метод сжатия                             : С потерями
Размер потока                            : 70,9 Мбайт (6%)



990/972√
У вас нет необходимых прав для просмотра вложений в этом сообщении.