Анна Политковская: семь лет на линии фронта / Anna, Seven Years on the Frontline (Мария Новикова) [2008, Нидерланды, Рос

Торрент Сидеров Личеров Размер
torrent_3706810.torrent
0 0 1.33 ГБ
Аватара пользователя
Солнышко
Сообщения: 22944
Зарегистрирован: 13 янв 2016, 22:10

Анна Политковская: семь лет на линии фронта / Anna, Seven Years on the Frontline (Мария Новикова) [2008, Нидерланды, Рос

Сообщение Солнышко » 18 мар 2018, 20:49


Анна Политковская: семь лет на линии фронта
Anna, Seven Years on the Frontline
Страна: Нидерланды, Россия
Жанр: документальный
Год выпуска: 2008
Продолжительность: 01:18:23
Перевод: Не требуется
Субтитры: английские (hard)
Навигация по главам: есть (14 глав)
Режиссер: Мария Новикова
Описание: Фильм «Анна Политковская: семь лет на линии фронта» снят в 2008 г. голландским режиссером Машей Новиковой. Российская премьера фильма состоялась 24 июня 2008 года в Музее имени Сахарова. В мае лента получила премию международной правозащитной организации «Амнести Интернешнл».
Анна Политковская была убита 7 октября 2006 года в подъезде своего дома. Многие убеждены, что это убийство было связано с профессиональной деятельностью журналистки.
В фильме рассказывается о деятельности Анны Политковской в последние семь лет её жизни, показаны документальные кадры из Чечни, связанные с зачистками, исчезновениями мирных граждан, пытками и убийствами. Подробно освещается дело полковника Юрия Буданова, рассказывается о трагедиях «Норд-Оста» и Беслана. В фильме используются фрагменты выступления Анны Политковской на первой конференции коалиции «Другая Россия» в 2006 году.
Made with MeGUI, muxed with mkvmerge.
No filters applied.
Качество: DVDRip ()
Формат: MKV
Видео кодек: AVC
Аудио кодек: AC3
Видео: 716x572@1017x572; 2163 kbps; 25 fps; 0,207 bpp
Аудио #1: Russian; AC3; 256 kbps; 2 ch; Original


Source vs Encode
Код:

Код: Выделить всё

General
UniqueID                         : 214811165389697511767309892679473381048 (0xA19B20261827B9C19B20BF8B0D7D3EB8)
Complete name                    : Anna.Seven.Years.on.the.Frontline.2008.DVDRip.by.gjiAm.tRuAVC.mkv
Format                           : Matroska
File size                        : 1.33 GiB
Duration                         : 1h 18mn
Overall bit rate                 : 2 421 Kbps
Encoded date                     : UTC 2011-09-18 07:02:46
Writing application              : mkvmerge v3.4.0 ('Rapunzel') built on May 15 2010 09:38:20
Writing library                  : libebml v0.8.0 + libmatroska v0.9.0
Video
ID                               : 1
Format                           : AVC
Format/Info                      : Advanced Video Codec
Format profile                   : High@L3.2
Format settings, CABAC           : Yes
Format settings, ReFrames        : 12 frames
Codec ID                         : V_MPEG4/ISO/AVC
Duration                         : 1h 18mn
Bit rate                         : 2 117 Kbps
Width                            : 716 pixels
Height                           : 572 pixels
Display aspect ratio             : 16:9
Frame rate                       : 25.000 fps
Color space                      : YUV
Chroma subsampling               : 4:2:0
Bit depth                        : 8 bits
Scan type                        : Progressive
Bits/(Pixel*Frame)               : 0.207
Stream size                      : 1.16 GiB (87%)
Title                            : Rip by gjiAm [tRuAVC]
Writing library                  : x264 core 116 r2074 2641b9e
Encoding settings                : cabac=1 / ref=12 / deblock=1:-2:-1 / analyse=0x3:0x133 / me=umh / subme=11 / psy=1 / psy_rd=1.10:0.05 / mixed_ref=1 / me_range=32 / chroma_me=1 / trellis=2 / 8x8dct=1 / cqm=0 / deadzone=21,11 / fast_pskip=1 / chroma_qp_offset=-3 / threads=12 / sliced_threads=0 / nr=0 / decimate=1 / interlaced=0 / bluray_compat=0 / constrained_intra=0 / bframes=10 / b_pyramid=2 / b_adapt=2 / b_bias=0 / direct=3 / weightb=1 / open_gop=0 / weightp=2 / keyint=250 / keyint_min=25 / scenecut=40 / intra_refresh=0 / rc=crf / mbtree=0 / crf=18.5 / qcomp=0.60 / qpmin=0 / qpmax=69 / qpstep=4 / ip_ratio=1.40 / pb_ratio=1.30 / aq=1:0.90
Language                         : Russian
Matrix coefficients              : BT.470-6 System B, BT.470-6 System G, BT.601-6 625, BT.1358 625, BT.1700 625 PAL, BT.1700 625 SECAM, IEC 61966-2-4 601
Audio
ID                               : 2
Format                           : AC-3
Format/Info                      : Audio Coding 3
Mode extension                   : CM (complete main)
Codec ID                         : A_AC3
Duration                         : 1h 18mn
Bit rate mode                    : Constant
Bit rate                         : 256 Kbps
Channel(s)                       : 2 channels
Channel positions                : Front: L R
Sampling rate                    : 48.0 KHz
Bit depth                        : 16 bits
Compression mode                 : Lossy
Stream size                      : 144 MiB (11%)
Title                            : Original
Language                         : Russian
Menu
00:00:00.000                     : Chapter 1
00:05:48.960                     : Chapter 2
00:11:48.960                     : Chapter 3
00:17:48.480                     : Chapter 4
00:23:47.040                     : Chapter 5
00:29:45.120                     : Chapter 6
00:35:45.120                     : Chapter 7
00:41:44.160                     : Chapter 8
00:47:43.680                     : Chapter 9
00:53:43.680                     : Chapter 10
00:59:43.680                     : Chapter 11
01:05:43.680                     : Chapter 12
01:11:40.800                     : Chapter 13
01:17:40.320                     : Chapter 14
-[NoImage] avs [info]: 716x572p 64:45 @ 25/1 fps (cfr)
-[NoImage] x264 [warning]: --psnr used with psy on: results will be invalid!
-[NoImage] x264 [warning]: --tune psnr should be used if attempting to benchmark psnr!
-[NoImage] x264 [info]: using SAR=64/45
-[NoImage] x264 [info]: using cpu capabilities: MMX2 SSE2Fast SSSE3 FastShuffle SSE4.2
-[NoImage] x264 [info]: profile High, level 3.2
-[NoImage]
-[NoImage] x264 [info]: frame I:607 Avg QP:18.87 size: 40880 PSNR Mean Y:45.67 U:50.20 V:50.75 Avg:46.74 Global:46.26
-[NoImage] x264 [info]: frame P:22911 Avg QP:19.98 size: 19614 PSNR Mean Y:44.06 U:48.96 V:49.61 Avg:45.19 Global:44.67
-[NoImage] x264 [info]: frame B:94082 Avg QP:22.67 size: 8478 PSNR Mean Y:42.86 U:48.27 V:49.00 Avg:44.06 Global:43.59
-[NoImage] x264 [info]: consecutive B-frames: 0.8% 0.8% 3.7% 18.5% 19.2% 45.8% 6.2% 2.0% 1.6% 0.8% 0.4%
-[NoImage] x264 [info]: mb I I16..4: 3.7% 78.7% 17.6%
-[NoImage] x264 [info]: mb P I16..4: 0.5% 13.7% 1.6% P16..4: 34.4% 36.4% 9.0% 2.1% 0.1% skip: 2.2%
-[NoImage] x264 [info]: mb B I16..4: 0.1% 1.8% 0.2% B16..8: 36.5% 20.4% 2.9% direct:11.8% skip:26.3% L0:42.4% L1:42.3% BI:15.3%
-[NoImage] x264 [info]: 8x8 transform intra:86.4% inter:66.1%
-[NoImage] x264 [info]: direct mvs spatial:100.0% temporal:0.0%
-[NoImage] x264 [info]: coded y,uvDC,uvAC intra: 93.1% 72.6% 32.1% inter: 37.6% 31.4% 3.0%
-[NoImage] x264 [info]: i16 v,h,dc,p: 39% 15% 5% 41%
-[NoImage] x264 [info]: i8 v,h,dc,ddl,ddr,vr,hd,vl,hu: 15% 6% 5% 8% 12% 16% 11% 14% 12%
-[NoImage] x264 [info]: i4 v,h,dc,ddl,ddr,vr,hd,vl,hu: 21% 6% 5% 7% 13% 16% 11% 11% 10%
-[NoImage] x264 [info]: i8c dc,h,v,p: 24% 29% 25% 22%
-[NoImage] x264 [info]: Weighted P-Frames: Y:11.0% UV:3.7%
-[NoImage] x264 [info]: ref P L0: 37.0% 10.1% 20.1% 7.0% 6.5% 4.2% 4.4% 2.2% 2.4% 1.8% 2.0% 1.8% 0.2% 0.0%
-[NoImage] x264 [info]: ref B L0: 74.2% 12.2% 4.5% 2.5% 1.7% 1.5% 1.1% 0.8% 0.7% 0.5% 0.3%
-[NoImage] x264 [info]: ref B L1: 94.1% 5.9%
-[NoImage] x264 [info]: SSIM Mean Y:0.9804995 (17.100db)
-[NoImage] x264 [info]: PSNR Mean Y:43.111 U:48.417 V:49.125 Avg:44.295 Global:43.793 kb/s:2162.88
-[NoImage] encoded 117600 frames, 3.54 fps, 2162.89 kb/s


Внимание! Если у вас что-то не проигрывается, не гудит, не свистит: большая просьба ознакомиться с содержимым составленного для вашего удобства FAQ. Вопросы, ответы на которые есть в FAQ, будут игнорироваться.
[*]

Для пользователей CoreAVC: корректное воспроизведение данного релиза декодером CoreAVC версии 1.9.5 и младше без включения CUDA acceleration невозможно.

/
У вас нет необходимых прав для просмотра вложений в этом сообщении.