Джон Кеннеди. Семь дней, определивших президента / JFK. Seven Days That Made a President (Стив Вебб / Steve Webb) [2013,

Торрент Сидеров Личеров Размер
torrent_4586957.torrent
0 0 1.04 ГБ
Аватара пользователя
Солнышко
Сообщения: 22944
Зарегистрирован: 13 янв 2016, 22:10

Джон Кеннеди. Семь дней, определивших президента / JFK. Seven Days That Made a President (Стив Вебб / Steve Webb) [2013,

Сообщение Солнышко » 18 мар 2018, 21:13

Джон Кеннеди. Семь дней, определивших президента / JFK. Seven Days That Made a President
Год выпуска: 2013
Страна: Великобритания
Жанр: Документально-постановочный, история, биография, политика
Продолжительность: 01:27:59
Перевод: Студийный (одноголосый закадровый), "Арк ТВ", Текст Игорь Тарадайкин
Русские субтитры: нет
Режиссер: Стив Вебб / Steve Webb
Описание: Рассказ о днях, ставших для Джона Кеннеди испытанием и определивших его. Семь решающих дней сформировали его как личность и создали легенду. Семь кризисных моментов, когда ему приходилось принимать решения относительно собственного будущего и будущего страны. Джон Фицджеральд Кеннеди - мальчик, страдавший от тяжелой болезни и герой войны. Первый президент эпохи телевидения, изменивший лицо политики. Государственный деятель, умевший осадить врагов за рубежом и обладавший мужеством противостоять расизму у себя на родине. Его жизнь трагически оборвалась, но он навсегда останется символом молодости и надежды.
качество: SATRip
формат: AVI
Видео: XviD, 704x400, 1549 Кбит/с
Аудио: MP3, 128 Кбит/с, 2 ch
Сэмпл: http://multi-up.com/922697
General
Complete name : D:\JFK.Семь дней определивших президента.2013.SATRip.avi
Format : AVI
Format/Info : Audio Video Interleave
File size : 1.04 GiB
Duration : 1h 27mn
Overall bit rate : 1 687 Kbps
Writing application : VirtualDubMod 1.5.10.3 | www.virtualdub-fr.org || (build 2550/release)
Writing library : VirtualDubMod build 2550/release
Video
ID : 0
Format : MPEG-4 Visual
Format profile : Advanced Simple@L5
Format settings, BVOP : 2
Format settings, QPel : No
Format settings, GMC : No warppoints
Format settings, Matrix : Custom
Codec ID : XVID
Codec ID/Hint : XviD
Duration : 1h 27mn
Bit rate : 1 549 Kbps
Width : 704 pixels
Height : 400 pixels
Display aspect ratio : 16:9
Frame rate : 25.000 fps
Color space : YUV
Chroma subsampling : 4:2:0
Bit depth : 8 bits
Scan type : Progressive
Compression mode : Lossy
Bits/(Pixel*Frame) : 0.220
Stream size : 975 MiB (92%)
Writing library : XviD 1.2.1 (UTC 2008-12-04)
Audio
ID : 1
Format : MPEG Audio
Format version : Version 1
Format profile : Layer 3
Codec ID : 55
Codec ID/Hint : MP3
Duration : 1h 27mn
Bit rate mode : Constant
Bit rate : 128 Kbps
Channel(s) : 2 channels
Sampling rate : 48.0 KHz
Compression mode : Lossy
Stream size : 80.6 MiB (8%)
Alignment : Aligned on interleaves
Interleave, duration : 40 ms (1.00 video frame)
Interleave, preload duration : 504 ms
Writing library : LAME3.99r
Encoding settings : -m s -V 4 -q 0 -lowpass 17 -b 128
У вас нет необходимых прав для просмотра вложений в этом сообщении.