Народный артист СССР Михаил Ульянов (Л. Елагин) [1975, СССР, Документальный, DVB]

Торрент Сидеров Личеров Размер
torrent_4594571.torrent
0 0 2.73 ГБ
Аватара пользователя
Солнышко
Сообщения: 22944
Зарегистрирован: 13 янв 2016, 22:10

Народный артист СССР Михаил Ульянов (Л. Елагин) [1975, СССР, Документальный, DVB]

Сообщение Солнышко » 18 мар 2018, 21:14

Народный артист СССР Михаил Ульянов
Страна: СССР
Жанр: документальный
Год выпуска: 1975
Продолжительность: 01:16:16
Перевод: не требуется
Режиссёр: Л. Елагин
Описание: Михаил Александрович Ульянов рассказывает о своей жизни и творчестве...
Доп. информация: В передачу включены киноматериалы встречи Михаила Ульянова со зрителями и беседы с ним в просмотровом зале ЦТ.
Качество: DVB
Формат: MPEG-PS
Видео: MPEG-2, 720x576@768x576 (4/3), 25 fps, ~4835 Kbps (0.466 bit/pixel)
Аудио: MP2, 48 KHz, 2 ch, 192 Kbps
General
Complete name : ...\Народный артист СССР Михаил Ульянов (1975) [DVB].mpg
Format : MPEG-PS
File size : 2.73 GiB
Duration : 1h 16mn
Overall bit rate mode : Variable
Overall bit rate : 5 129 Kbps
Video
ID : 224 (0xE0)
Format : MPEG Video
Format version : Version 2
Format profile : Main@Main
Format settings, BVOP : No
Format settings, Matrix : Custom
Format settings, GOP : M=3, N=36
Duration : 1h 16mn
Bit rate mode : Variable
Bit rate : 4 835 Kbps
Maximum bit rate : 15.0 Mbps
Width : 720 pixels
Height : 576 pixels
Display aspect ratio : 4:3
Frame rate : 25.000 fps
Standard : PAL
Color space : YUV
Chroma subsampling : 4:2:0
Bit depth : 8 bits
Scan type : Interlaced
Scan order : Top Field First
Compression mode : Lossy
Bits/(Pixel*Frame) : 0.466
Time code of first frame : 00:00:00:00
Time code source : Group of pictures header
Stream size : 2.58 GiB (94%)
Audio
ID : 192 (0xC0)
Format : MPEG Audio
Format version : Version 1
Format profile : Layer 2
Duration : 1h 16mn
Bit rate mode : Constant
Bit rate : 192 Kbps
Channel count : 2 channels
Sampling rate : 48.0 KHz
Compression mode : Lossy
Stream size : 105 MiB (4%)
У вас нет необходимых прав для просмотра вложений в этом сообщении.