Ступени (С. Стародубцев) [1985, Ростовская студия кинохроники, документальный, VHSRip]

Торрент Сидеров Личеров Размер
torrent_4847166.torrent
0 0 199.65 МБ
Аватара пользователя
Солнышко
Сообщения: 22944
Зарегистрирован: 13 янв 2016, 22:10

Ступени (С. Стародубцев) [1985, Ростовская студия кинохроники, документальный, VHSRip]

Сообщение Солнышко » 18 мар 2018, 21:14

Ступени
Дата/Год выпуска: 1985
Страна: СССР
Жанр: документальный
Продолжительность: 00:19:36
Перевод: Не требуется
Режиссер: С. Стародубцев
Описание: Фильм посвящён основным этапам идейных и творческих исканий Антона Павловича Чехова. Поездка на Сахалин, книга о нем, работа во время голода и во время холеры, врачебная практика, постройка школ, устройство таганрогской библиотеки...- и всё это в течении семи лет при развивающейся смертельной болезни.
Доп. информация: Фильм оцифрован с киноплёнки 16-мм из личного архива
качество: VHSRip
формат: AVI
Видео: XviD, 4:3, 720х544, 1424 kbps, 25 fps
Аудио: МР-3, 128 kbps, 48 kHz, 2 ch (моно)

Код: Выделить всё

Общее
Полное имя                               :Ступени.avi
Формат                                   : AVI
Формат/Информация                        : Audio Video Interleave
Размер файла                             : 200 Мбайт
Продолжительность                        : 19 м.
Общий поток                              : 1424 Кбит/сек
Программа кодирования                    : VirtualDubMod 1.5.4.1 (build 2178/release)
Библиотека кодирования                   : VirtualDubMod build 2178/release
Видео
Идентификатор                            : 0
Формат                                   : MPEG-4 Visual
Профиль формата                          : Advanced Simple@L5
Параметр BVOP формата                    : 1
Параметр QPel формата                    : Нет
Параметр GMC формата                     : Без точки перехода
Параметр матрицы формата                 : Выборочная
Идентификатор кодека                     : XVID
Идентификатор кодека/Подсказка           : XviD
Продолжительность                        : 19 м.
Битрейт                                  : 1289 Кбит/сек
Ширина                                   : 720 пикселей
Высота                                   : 544 пикселя
Соотношение сторон                       : 4:3
Частота кадров                           : 25,000 кадров/сек
Цветовое пространство                    : YUV
Субдискретизация насыщенности            : 4:2:0
Битовая глубина                          : 8 бит
Тип развёртки                            : Прогрессивная
Метод сжатия                             : С потерями
Бит/(Пиксели*Кадры)                      : 0.132
Размер потока                            : 181 Мбайт (90%)
Библиотека кодирования                   : XviD 64
Аудио
Идентификатор                            : 1
Формат                                   : MPEG Audio
Версия формата                           : Version 1
Профиль формата                          : Layer 3
Режим                                    : Joint stereo
Расширение режима                        : MS Stereo
Идентификатор кодека                     : 55
Идентификатор кодека/Подсказка           : MP3
Продолжительность                        : 19 м.
Вид битрейта                             : Постоянный
Битрейт                                  : 128 Кбит/сек
Каналы                                   : 2 канала
Частота                                  : 48,0 КГц
Метод сжатия                             : С потерями
Размер потока                            : 17,9 Мбайт (9%)
Выравнивание                             : Соединение по промежуткам
Продолжительность промежутка             : 80  мс. (2,00 видеокадра)
Время предзагрузки промежутка            : 504  мс.
Библиотека кодирования                   : LAME3.98r
Настройки программы                      : -m j -V 4 -q 2 -lowpass 17 -b 128
, , ,
У вас нет необходимых прав для просмотра вложений в этом сообщении.