Война за №5 / La guerre du N°5 (Стефан Бенаму / Stephane Benhamou) [2017, Франция, документальный, биографический, DVB]

Торрент Сидеров Личеров Размер
torrent_5460650.torrent
29 0 1.22 ГБ
Аватара пользователя
Солнышко
Сообщения: 22944
Зарегистрирован: 13 янв 2016, 22:10

Война за №5 / La guerre du N°5 (Стефан Бенаму / Stephane Benhamou) [2017, Франция, документальный, биографический, DVB]

Сообщение Солнышко » 18 мар 2018, 21:14

Война за "№5"
La guerre du N°5
#77Год выпуска: 2017
Страна: Франция
Жанр: документальный, биографический
Продолжительность: 00:52:16
Перевод: Субтитры (перевод М.Кузиной, Eclair Media)
Русские субтитры: естьФормат субтитров: prerendered (IDX+SUB), softsub (SRT)
Доп. информация о субтитрах: русские, немецкие, румынские - (IDX+SUB); английские, французские - (SRT)
Оригинальная аудиодорожка: французский
Режиссер: Стефан Бенаму / Stéphane Benhamou
Канал: TV5MONDE Europe
Описание: "Шанель №5", легендарные духи. С этим ароматом Коко Шанель заново изобрела духи, точно так же, как она произвела революцию в моде, сочетая современность, смелость и свободу. Но №5, это также история реальной войны между мадмуазель Шанель и ее сотрудниками, братьями Вертхаймер...
Доп. информация: Hot Bird (13.0°E) DVB-S
качество: DVB
формат: MKV
Видео: MPEG Video 2, 720x576 (16:9), 25 fps, ~3075 kbps avg, 0.297 bit/pixel
Аудио: MPEG Audio 2, 2 ch, 48 kHz, 192.00 kbps - французский

Код: Выделить всё

General
Unique ID                                : 171393057475753050981214048372909249310 (0x80F11A2780B1B01C9A00361DA675931E)
Complete name                            : [apreder]La_guerre_du_N5(2017)DVB.mkv
Format                                   : Matroska
Format version                           : Version 2
File size                                : 1.22 GiB
Duration                                 : 52 min 16 s
Overall bit rate mode                    : Variable
Overall bit rate                         : 3 334 kb/s
Movie name                               : La guerre du N°5
Released date                            : 2017-00-00
Encoded date                             : UTC 2017-10-01 13:13:09
Writing application                      : mkvmerge v16.0.0 ('Protest') 64-bit
Writing library                          : libebml v1.3.5 + libmatroska v1.4.8
Cover                                    : Yes
Attachments                              : cover.jpg / small_cover.jpg
DIRECTOR                                 : Stephane Benhamou
GENRE                                    : Documentary
KEYWORDS                                 : rutracker.org
LAW_RATING                               : 12+
Video
ID                                       : 1
Format                                   : MPEG Video
Format version                           : Version 2
Format profile                           : Main@Main
Format settings                          : CustomMatrix / BVOP
Format settings, BVOP                    : Yes
Format settings, Matrix                  : Custom
Format settings, GOP                     : Variable
Format settings, picture structure       : Frame
Codec ID                                 : V_MPEG2
Codec ID/Info                            : MPEG 1 or 2 Video
Duration                                 : 52 min 16 s
Bit rate mode                            : Variable
Bit rate                                 : 3 075 kb/s
Width                                    : 720 pixels
Height                                   : 576 pixels
Display aspect ratio                     : 16:9
Frame rate mode                          : Constant
Frame rate                               : 25.000 FPS
Standard                                 : PAL
Color space                              : YUV
Chroma subsampling                       : 4:2:0
Bit depth                                : 8 bits
Scan type                                : Interlaced
Scan order                               : Top Field First
Compression mode                         : Lossy
Bits/(Pixel*Frame)                       : 0.297
Time code of first frame                 : 00:00:00:00
Time code source                         : Group of pictures header
GOP, Open/Closed                         : Open
GOP, Open/Closed of first frame          : Closed
Stream size                              : 1.12 GiB (92%)
Default                                  : Yes
Forced                                   : No
Audio
ID                                       : 2
Format                                   : MPEG Audio
Format version                           : Version 1
Format profile                           : Layer 2
Format settings                          : Joint stereo / Intensity Stereo + MS Stereo
Mode                                     : Joint stereo
Mode extension                           : Intensity Stereo + MS Stereo
Codec ID                                 : A_MPEG/L2
Codec ID/Hint                            : MP2
Duration                                 : 52 min 16 s
Bit rate mode                            : Constant
Bit rate                                 : 192 kb/s
Channel(s)                               : 2 channels
Sampling rate                            : 48.0 kHz
Compression mode                         : Lossy
Stream size                              : 71.8 MiB (6%)
Language                                 : French
Default                                  : Yes
Forced                                   : No
Text #1
ID                                       : 3
Format                                   : VobSub
Codec ID                                 : S_VOBSUB
Codec ID/Info                            : Picture based subtitle format used on DVDs
Language                                 : Russian
Default                                  : No
Forced                                   : No
Text #2
ID                                       : 4
Format                                   : UTF-8
Codec ID                                 : S_TEXT/UTF8
Codec ID/Info                            : UTF-8 Plain Text
Language                                 : English
Default                                  : No
Forced                                   : No
Text #3
ID                                       : 5
Format                                   : UTF-8
Codec ID                                 : S_TEXT/UTF8
Codec ID/Info                            : UTF-8 Plain Text
Language                                 : French
Default                                  : No
Forced                                   : No
Text #4
ID                                       : 6
Format                                   : VobSub
Codec ID                                 : S_VOBSUB
Codec ID/Info                            : Picture based subtitle format used on DVDs
Language                                 : German
Default                                  : No
Forced                                   : No
Text #5
ID                                       : 7
Format                                   : VobSub
Codec ID                                 : S_VOBSUB
Codec ID/Info                            : Picture based subtitle format used on DVDs
Language                                 : Dutch
Default                                  : No
Forced                                   : No
Text #6
ID                                       : 8
Format                                   : VobSub
Codec ID                                 : S_VOBSUB
Codec ID/Info                            : Picture based subtitle format used on DVDs
Language                                 : Romanian
Default                                  : No
Forced                                   : No



[3'896]
У вас нет необходимых прав для просмотра вложений в этом сообщении.