Зелёная Рина (Дарья Романова) [2002, Документальный, биографический, DVB]

Торрент Сидеров Личеров Размер
torrent_3811516.torrent
0 0 947.19 МБ
Аватара пользователя
Солнышко
Сообщения: 22944
Зарегистрирован: 13 янв 2016, 22:10

Зелёная Рина (Дарья Романова) [2002, Документальный, биографический, DVB]

Сообщение Солнышко » 18 мар 2018, 21:18

Зелёная Рина
Год выпуска: 2002
Страна: Россия, Агенство БеМиС
Жанр: Документальный, биографический
Продолжительность: 00:35:07
Перевод: Не требуется
Русские субтитры: нет
Режиссер: Дарья Романова
Описание: Фильм посвящен столетию со дня рождения актрисы Рины Зеленой.
В передаче использованы фрагменты фильмов с участием актрисы и материалы кино-фотохроники.
О Рине Зеленой с нежностью вспоминают: Юрий Дмитриев, Тамара Элиава, Василий Ливанов, Юрий Энтин
Доп. информация:
General
ID : 1 (0x1)
Complete name : C:Зелёная Рина.2002_DVB_by_dean10.ts
Format : MPEG-TS
File size : 947 MiB
Duration : 35mn 7s
Overall bit rate mode : Variable
Overall bit rate : 3 769 Kbps
Video
ID : 221 (0xDD)
Menu ID : 1 (0x1)
Format : MPEG Video
Format version : Version 2
Format profile : Main@Main
Format settings, BVOP : Yes
Format settings, Matrix : Custom
Codec ID : 2
Duration : 35mn 8s
Bit rate mode : Variable
Bit rate : 3 389 Kbps
Maximum bit rate : 3 400 Kbps
Width : 720 pixels
Height : 576 pixels
Display aspect ratio : 4:3
Frame rate : 25.000 fps
Standard : PAL
Color space : YUV
Chroma subsampling : 4:2:0
Bit depth : 8 bits
Scan type : Interlaced
Scan order : Top Field First
Compression mode : Lossy
Bits/(Pixel*Frame) : 0.327
Stream size : 852 MiB (90%)
Audio
ID : 222 (0xDE)
Menu ID : 1 (0x1)
Format : MPEG Audio
Format version : Version 1
Format profile : Layer 2
Codec ID : 3
Duration : 35mn 8s
Bit rate mode : Constant
Bit rate : 192 Kbps
Channel(s) : 2 channels
Sampling rate : 48.0 KHz
Compression mode : Lossy
Stream size : 48.2 MiB (5%)
Language : English
Качество: DVB
Формат: TS
Видео кодек: H.264
Аудио кодек: MPEG1
Видео: MPEG2 Video 720x576 (4:3) 25.00fps, 3 389 Kbps
Аудио: MPEG Audio 48000Hz stereo 256 Кбит/сек
У вас нет необходимых прав для просмотра вложений в этом сообщении.