Андрей Кочергин. Мастер боевых искусств (Дмитрий Медведев) [2012, Документальный, познавательный, DVB]

Торрент Сидеров Личеров Размер
torrent_4301727.torrent
0 0 955.15 МБ
Аватара пользователя
Солнышко
Сообщения: 22944
Зарегистрирован: 13 янв 2016, 22:10

Андрей Кочергин. Мастер боевых искусств (Дмитрий Медведев) [2012, Документальный, познавательный, DVB]

Сообщение Солнышко » 18 мар 2018, 21:18

Андрей Кочергин. Мастер боевых искусств
Год выпуска: 2012
Страна: Россия
Жанр: Документальный, познавательный
Продолжительность: 00:39:33
Перевод: Не требуется
Русские субтитры: нет
Режиссер: Дмитрий Медведев
Описание: Абсолютная беспощадность по отношению к себе - один из главных принципов школы боевого карате Кои Но Такинобори Рю. Ее основоположник - Андрей Кочергин - человек весьма многогранный. Его жизнь, по словам самого героя — это путь карпа, плывущего вверх по водопаду, вопреки всему. Пройдя через кризис девяностых и пламя локальных войн, он выстоял и упорно продвигается к цели. Увлекшись в юности боевыми искусствами, сегодня Андрей Кочергин - признанный мастер единоборств, создатель прогрессивной методики боевой подготовки. Солдат, спортсмен, философ. Для Андрея Кочергина понятия добра и силы тесно связаны. Быть по-настоящему добрым может только сильный человек.
Сэмпл: http://multi-up.com/811008
качество: DVB
формат: MPEG-PS
видеокодек: MPEG2
аудиокодек: MP2
Видео: MPEG-2 Video, 720x576 (4:3), 25 fps, 3 117 Kbps, 0.30 bit/pixel
Аудио: Russian: 48 kHz, MPEG Audio, 2 ch, 192 kbps
General
Complete name : C:Андрей Кочергин. Мастер боевых искусств_2012_DVB_by_dean10.mpg
Format : MPEG-PS
File size : 955 MiB
Duration : 39mn 33s
Overall bit rate mode : Variable
Overall bit rate : 3 376 Kbps
Video
ID : 224 (0xE0)
Format : MPEG Video
Format version : Version 2
Format profile : Main@Main
Format settings, BVOP : Yes
Format settings, Matrix : Custom
Duration : 39mn 33s
Bit rate mode : Variable
Bit rate : 3 117 Kbps
Maximum bit rate : 15.0 Mbps
Width : 720 pixels
Height : 576 pixels
Display aspect ratio : 4:3
Frame rate : 25.000 fps
Standard : PAL
Color space : YUV
Chroma subsampling : 4:2:0
Bit depth : 8 bits
Scan type : Interlaced
Scan order : Top Field First
Compression mode : Lossy
Bits/(Pixel*Frame) : 0.301
Stream size : 882 MiB (92%)
Audio
ID : 192 (0xC0)
Format : MPEG Audio
Format version : Version 1
Format profile : Layer 2
Duration : 39mn 33s
Bit rate mode : Constant
Bit rate : 192 Kbps
Channel(s) : 2 channels
Sampling rate : 48.0 KHz
Compression mode : Lossy
Stream size : 54.3 MiB (6%)
У вас нет необходимых прав для просмотра вложений в этом сообщении.