Легенда. Людмила Гурченко [2011, Документальный, DVB]

Торрент Сидеров Личеров Размер
torrent_3518183.torrent
0 0 1.29 ГБ
Аватара пользователя
Солнышко
Сообщения: 22944
Зарегистрирован: 13 янв 2016, 22:10

Легенда. Людмила Гурченко [2011, Документальный, DVB]

Сообщение Солнышко » 18 мар 2018, 21:18

Легенда. Людмила Гурченко
Год выпуска: 2011
Страна: Украина
Жанр: Документальный
Производство: "Интер"
Продолжительность: 01:15:29
Описание: В память о легендарной актрисе, народной артистке СССР Людмиле Гурченко в пятницу, 8 апреля, в 20:30 телеканал "Интер" покажет фильм из цикла "Легенда", посвященный этой великой женщине.
Фильм снимался в Киеве в феврале 2011 года. Это была одна из последних съемок актрисы. Несмотря на напряженный график, Людмила Марковна как настоящий профессионал несколько часов подряд пела, танцевала и не жаловалась на усталость. Она была так тронута атмосферой проекта, что по окончании съемок не сдержалась от комплиментов.
На творчестве Людмилы Гурченко выросло не одно поколение. Она всегда была и останется с нами – в нашей памяти и в наших сердцах.
Релиз
Качество: DVB
Формат: MPEG
Видео кодек: MPEG2
Аудио кодек: MPEG1 Layer 2
Видео: MPEG2 Video 704x576 (4:3) 25.00fps 2 213 Kbps
Аудио: MPEG Audio 48000Hz stereo 192 Кбит/сек
Complete name : F:\TORENTRAZDACHI\Легенда. Людмила Гурченко_DVB by CLIPMAN.mpg
Format : MPEG-PS
File size : 1.29 GiB
Duration : 1h 15mn
Overall bit rate : 2 454 Kbps
Video
ID : 224 (0xE0)
Format : MPEG Video
Format version : Version 2
Format profile : Main@Main
Format settings, BVOP : Yes
Format settings, Matrix : Default
Format settings, GOP : M=1, N=19
Duration : 1h 15mn
Bit rate mode : Variable
Bit rate : 2 213 Kbps
Nominal bit rate : 15.0 Mbps
Width : 704 pixels
Height : 576 pixels
Display aspect ratio : 4:3
Frame rate : 25.000 fps
Standard : PAL
Color space : YUV
Chroma subsampling : 4:2:0
Bit depth : 8 bits
Scan type : Interlaced
Scan order : Top Field First
Bits/(Pixel*Frame) : 0.218
Stream size : 1.17 GiB (90%)
Audio
ID : 192 (0xC0)
Format : MPEG Audio
Format version : Version 1
Format profile : Layer 2
Duration : 1h 15mn
Bit rate mode : Constant
Bit rate : 192 Kbps
Channel(s) : 2 channels
Sampling rate : 48.0 KHz
Video delay : -40ms
Stream size : 104 MiB (8%)
У вас нет необходимых прав для просмотра вложений в этом сообщении.