Последние дни знаменитостей: Последние дни Джанни Версаче / Final Days of an Icon: Final Days of Gianni Versace (Тед Энспач / Ted Anspach) [2005, документальный, криминальная драма, гей-тема, DVB] VO (Кто есть кто)

Торрент Сидеров Личеров Размер
torrent_3452963.torrent
0 0 1.02 ГБ
Аватара пользователя
Солнышко
Сообщения: 22944
Зарегистрирован: 13 янв 2016, 22:10

Последние дни знаменитостей: Последние дни Джанни Версаче / Final Days of an Icon: Final Days of Gianni Versace (Тед Энспач / Ted Anspach) [2005, документальный, криминальная драма, гей-тема, DVB] VO (Кто есть кто)

Сообщение Солнышко » 18 мар 2018, 21:26

Последние дни знаменитостей: Последние дни Джанни Версаче
Final Days of an Icon: Final Days of Gianni Versace
Год выпуска: 2005
Страна: Франция, США
Жанр: документальный, криминальная драма, гей-тема
Продолжительность: 00:51:55
Перевод: Профессиональный (одноголосый) (канал "Кто есть кто")
Русские субтитры: нет
Режиссер: Тед Энспач / Ted Anspach
Описание: Они были выдающимися, талантливыми людьми, каждый в своей области: политике, киноискусстве, музыке, моде и спорте. Их любили и ненавидели, восхищались и критиковали. Их смерть вызвала шок и всеобщее горе. Их гибель произошла в результате несчастного случая и при загадочных, не до конца выясненных обстоятельствах. Что происходило с ними в их последние дни? Что они делали и с кем встречались незадолго до гибели? Могли ли они избежать такой участи? Вскрылось ли за время, прошедшее с их гибели, что-либо еще, подтверждающее или опровергающее первоначальные предположения. Об этом расскажет документальный сериал «Последние дни знаменитостей».
Джанни Версаче начал карьеру как простой портной в салоне своей матери, шил кукол, а в 9 лет создал первое платье, подбитое бархатом. В 25 лет отправляется в Милан, где в 1978 году с грандиозным успехом прошла первая презентация коллекции мужской и женской одежды «Версаче». А в начале 90-х — выпустил версию кожаных изделий, верхней одежды, духов, мебели и прочей домашней утвари. Версаче черпал своё вдохновение в абстрактном искусстве, творчестве Энди Уорхола, итальянском искусстве эпохи ренессанса. Версаче не скрывал своей гомосексуальной ориентации, прожив 11 лет совместно со своим спутником жизни Антонио д’Амико. В своем особняке “Лаго ди Комо” , расположенном на берегу озера Комо в Италии он любил проводить время в компании своих друзей: Элтона Джона, Мадонны, Джорджа Майкла. Застрелен в городе Майами-Бич (пригороде Майами) серийным убийцей гомосексуальной ориентации Эндрю Кьюнененом без какой-либо видимой причины, похоронен у озера Комо.

Информация о фильме: http://www.sunsetpresse.fr/index.php?op ... d=55&lang= + http://www.presseportal.de/pm/6511/1030266/phoenix
Сэмпл: http://multi-up.com/442438
Доп. информация: Собственная запись со спутника (канал "Кто есть кто", пакет НТВ+). Ресивер Topfield5010PVR.
Качество : DVB
Формат: TS
Видео кодек: MPEG2
Аудио кодек: MP2
Видео: MPEG2, PAL 704х576@768x576 (4:3), 25 fps, ~2458 kbps
Аудио: Русский (48 kHz, MPEG Audio 2, 2 ch, ~192.00 kbps avg)
Полное имя : H:\My Torrents\[apreder]Final_Days_of_Gianni_Versace(2005)DVB.ts
Формат : MPEG-TS
Размер файла : 1,02 Гбайт
Продолжительность : 51 м.
Общий поток : 2805 Кбит/сек
Видео
Идентификатор : 224 (0xE0)
Идентификатор меню : 258 (0x102)
Формат : MPEG Video
Версия формата : Version 2
Профиль формата : Main@Main
Параметр BVOP формата : Да
Параметр матрицы формата : По умолчанию
Идентификатор кодека : 2
Продолжительность : 51 м.
Вид битрейта : Переменный
Битрейт : 2472 Кбит/сек
Номинальный битрейт : 15,0 Мбит/сек
Ширина : 704 пикс.
Высота : 576 пикс.
Соотношение сторон : 4:3
Частота кадров : 25,000 кадр/сек
Стандарт вещания : PAL
Цветовое пространство : YUV
Подвыборка цветности : 4:2:0
Битовая глубина : 8 бит
Метод сжатия : С потерями
Бит/(Пиксели*Кадры) : 0.244
Размер потока : 918 Мбайт (88%)
Аудио
Идентификатор : 192 (0xC0)
Идентификатор меню : 258 (0x102)
Формат : MPEG Audio
Версия формата : Version 1
Профиль формата : Layer 2
Идентификатор кодека : 3
Продолжительность : 51 м.
Вид битрейта : Постоянный
Битрейт : 192 Кбит/сек
Каналы : 2 канала
Частота : 48,0 КГц
Метод сжатия : С потерями
Задержка видео : -814 мс.
Размер потока : 71,3 Мбайт (7%)
У вас нет необходимых прав для просмотра вложений в этом сообщении.