Александра Пахмутова. Отвечу за каждую ноту (Андрей Гречиха) [2012, документальный, SATRip]

Торрент Сидеров Личеров Размер
torrent_4393282.torrent
0 0 1.19 ГБ
Аватара пользователя
Солнышко
Сообщения: 22944
Зарегистрирован: 13 янв 2016, 22:10

Александра Пахмутова. Отвечу за каждую ноту (Андрей Гречиха) [2012, документальный, SATRip]

Сообщение Солнышко » 18 мар 2018, 21:26

Александра Пахмутова. Отвечу за каждую ноту
Год выпуска: 2012
Страна: Россия
Жанр: документальный
Продолжительность: 00:44:47 + 00:44:19
Перевод: Не требуется
Русские субтитры: нет
Режиссер: Андрей Гречиха
Автор сценария: Людмила Романенко
Описание: Творчество Александры Николаевны Пахмутовой стало, по сути, музыкальным сопровождением жизни Советского Союза. Ее песни звучали в космосе, на ударных комсомольских стройках и просто на танцплощадках: "Нежность", "Старый клен", "Команда молодости нашей", "Надежда", "Как молоды мы были", "Беловежская пуща".
Много лет композитор отказывалась от интервью, потому что в 90-е годы в прессе о ней появилось много негативной и просто лживой информации. Однако в данном случае рассказ Пахмутовой будет предельно откровенным. Мы не будем линейно описывать историю жизни Александры Николаевны в жанре ЖЗЛ. Ее жизнь – это ее музыка. Это станет драматургической канвой фильма. Но некоторые малоизвестные страницы ее жизни будут рассказаны ею самой.
Пахмутова стала "звездой" уже тогда, когда это слово считалось для артиста нескромным. Еще с 1976 года малая планета №1889 между Марсом и Юпитером именуется "Александра Пахмутова". Этот подарок ей сделали советские и американские астрономы.
Подарок стал символичным.
качество: SATRip
формат: AVI
Видео: 720x416 (1.73:1), 25 fps, XviD MPEG-4 ~1644 kbps avg, 0.22 bit/pixel
Аудио: 48 kHz, MPEG Layer 3, 2 ch, ~256.00 kbps avg
Формат : AVI
Формат/Информация : Audio Video Interleave
Размер файла : 1,19 Гбайт
Продолжительность : 1 ч. 29 м.
Общий поток : 1910 Кбит/сек
Библиотека кодирования : VirtualDub build 34670/release
Видео
Идентификатор : 0
Формат : MPEG-4 Visual
Профиль формата : Advanced Simple@L5
Параметр BVOP формата : 2
Параметр QPel формата : Нет
Параметр GMC формата : Без точки перехода
Параметр матрицы формата : Default (MPEG)
Режим смешивания : Сжатый битовый поток
Идентификатор кодека : XVID
Идентификатор кодека/Подсказка : XviD
Продолжительность : 1 ч. 29 м.
Битрейт : 1645 Кбит/сек
Ширина : 720 пикселей
Высота : 416 пикселей
Соотношение сторон : 1,731
Частота кадров : 25,000 кадров/сек
Цветовое пространство : YUV
Субдискретизация насыщенности : 4:2:0
Битовая глубина : 8 бит
Тип развёртки : Прогрессивная
Метод сжатия : С потерями
Бит/(Пиксели*Кадры) : 0.220
Размер потока : 1,02 Гбайт (86%)
Библиотека кодирования : XviD 64
Аудио
Идентификатор : 1
Формат : MPEG Audio
Версия формата : Version 1
Профиль формата : Layer 3
Режим : Joint stereo
Идентификатор кодека : 55
Идентификатор кодека/Подсказка : MP3
Продолжительность : 1 ч. 29 м.
Вид битрейта : Постоянный
Битрейт : 256 Кбит/сек
Каналы : 2 канала
Частота : 48,0 КГц
Метод сжатия : С потерями
Размер потока : 163 Мбайт (13%)
Выравнивание : Разделение по промежуткам
Продолжительность промежутка : 40 мс. (1,00 видеокадр)
Время предзагрузки промежутка : 500 мс.
У вас нет необходимых прав для просмотра вложений в этом сообщении.