Герой дня со Светланой Сорокиной. Юрий Любимов. [1999, беседа, VHSRip]

Торрент Сидеров Личеров Размер
torrent_4429443.torrent
0 0 353.56 МБ
Аватара пользователя
Солнышко
Сообщения: 22944
Зарегистрирован: 13 янв 2016, 22:10

Герой дня со Светланой Сорокиной. Юрий Любимов. [1999, беседа, VHSRip]

Сообщение Солнышко » 18 мар 2018, 21:26

Герой дня со Светланой Сорокиной. Юрий Любимов.
Год выпуска: 1999
Страна: Россия
Жанр: беседа
Продолжительность: 0:18:05
Перевод: Не требуется
Описание: Эфир 23 апреля 1999 года, посвящен 35-летию Театра на Таганке.
качество: VHSRip
формат: AVI
видеокодек: DivX
аудиокодек: MP3
Видео: 720x576, 25 fps, DivX, 2499 kbps avg, 0.241 bit/pixel
Аудио: 48 kHz, MPEG Layer 3, 2 ch, 224 kbps
Format : DivX
Format/Info : Hack of AVI
File size : 354 MiB
Duration : 18mn 5s
Overall bit rate : 2 733 Kbps
Video
ID : 0
Format : MPEG-4 Visual
Format settings, BVOP : No
Format settings, QPel : No
Format settings, GMC : No warppoints
Format settings, Matrix : Default (H.263)
Codec ID : DX50
Codec ID/Hint : DivX 5
Duration : 18mn 5s
Bit rate : 2 499 Kbps
Width : 720 pixels
Height : 576 pixels
Display aspect ratio : 5:4
Frame rate : 25.000 fps
Standard : PAL
Resolution : 24 bits
Colorimetry : 4:2:0
Scan type : Progressive
Bits/(Pixel*Frame) : 0.241
Stream size : 323 MiB (91%)
Title : Video
Writing library : DivX 6.6.1.4
Audio
ID : 1
Format : MPEG Audio
Format version : Version 1
Format profile : Layer 3
Codec ID : 55
Codec ID/Hint : MP3
Duration : 18mn 5s
Bit rate mode : Constant
Bit rate : 224 Kbps
Channel(s) : 2 channels
Sampling rate : 48.0 KHz
Resolution : 16 bits
Stream size : 29.0 MiB (8%)
Alignment : Split accross interleaves
Interleave, duration : 40 ms (1.00 video frame)
Interleave, preload duration : 500 ms
Title : Audio
Writing library : LAME3.96
У вас нет необходимых прав для просмотра вложений в этом сообщении.