Русские в мировой культуре. Юл Бриннер: душа бродяги (Маргарита Куклина) [2014, документальное, биография, SATRip]

Торрент Сидеров Личеров Размер
torrent_5024542.torrent
0 0 700.84 МБ
Аватара пользователя
Солнышко
Сообщения: 22944
Зарегистрирован: 13 янв 2016, 22:10

Русские в мировой культуре. Юл Бриннер: душа бродяги (Маргарита Куклина) [2014, документальное, биография, SATRip]

Сообщение Солнышко » 18 мар 2018, 21:26

Русские в мировой культуре. Юл Бриннер: душа бродяги
Дата/Год выпуска: 2014
Страна: Россия
Жанр: документальное, биография
Продолжительность: 00:40:58
Перевод: Не требуется
Русские субтитры: нет
Режиссер: Маргарита Куклина
Телеканал: Культура
Описание: Рок, сын знаменитого американского актера Юла Бриннера, едет в маленькую швейцарскую деревушку, откуда ведет начало его род. Он собирается принять участие в церемонии переименования площади, которая отныне будет называться в честь Юла Бриннера. По дороге сын вспоминает проведенные с отцом годы. Мало кто знает, что актер, сыгравший главную роль в одном из самых популярных вестернов "Великолепная семерка", родился в России.
Доп. информация: Рип с канала Культура. Остатки логотипа замазаны.
Сэмпл: http://multi-up.com/1053713
качество: SATRip
формат: AVI
Видео: MPEG4, XviD, 720x400 (16:9), 25.000 fps, 2 190 Kbps (0.304 bit/pixel)
Аудио: AC-3, 48.0 KHz, 2 ch, 192 Kbps, CBR

Код: Выделить всё

Общее
Полное имя                               : K:\Юл Бриннер. Душа бродяги.avi
Формат                                   : AVI
Формат/Информация                        : Audio Video Interleave
Размер файла                             : 701 Мбайт
Продолжительность                        : 40 м.
Общий поток                              : 2392 Кбит/сек
Название фильма                          : Юл Бриннер. Душа бродяги (2014)
Программа кодирования                    : VirtualDubMod 1.5.10.2 (build 2540/release)
Библиотека кодирования                   : VirtualDubMod build 2540/release
Правообладатель                          : miha2154
Видео
Идентификатор                            : 0
Формат                                   : MPEG-4 Visual
Профиль формата                          : Advanced Simple@L5
Параметр BVOP формата                    : 1
Параметр QPel формата                    : Нет
Параметр GMC формата                     : Без точки перехода
Параметр матрицы формата                 : Выборочная
Идентификатор кодека                     : XVID
Идентификатор кодека/Подсказка           : XviD
Продолжительность                        : 40 м.
Битрейт                                  : 2190 Кбит/сек
Ширина                                   : 720 пикселей
Высота                                   : 400 пикселей
Соотношение сторон                       : 16:9
Частота кадров                           : 25,000 кадров/сек
Цветовое пространство                    : YUV
Субдискретизация насыщенности            : 4:2:0
Битовая глубина                          : 8 бит
Тип развёртки                            : Прогрессивная
Метод сжатия                             : С потерями
Бит/(Пиксели*Кадры)                      : 0.304
Размер потока                            : 642 Мбайт (92%)
Библиотека кодирования                   : XviD 65
Аудио
Идентификатор                            : 1
Формат                                   : AC-3
Формат/Информация                        : Audio Coding 3
Расширение режима                        : CM (complete main)
Параметр Endianness формата              : Big
Идентификатор кодека                     : 2000
Продолжительность                        : 40 м.
Вид битрейта                             : Постоянный
Битрейт                                  : 192 Кбит/сек
Каналы                                   : 2 канала
Расположение каналов                     : Front: L R
Частота                                  : 48,0 КГц
Битовая глубина                          : 16 бит
Метод сжатия                             : С потерями
Размер потока                            : 56,3 Мбайт (8%)
Выравнивание                             : Разделение по промежуткам
Продолжительность промежутка             : 40  мс. (1,00 видеокадр)
Время предзагрузки промежутка            : 500  мс.



У вас нет необходимых прав для просмотра вложений в этом сообщении.