Приглашает Борис Ноткин. Андрей Панин [2004, Документальный, интервью, DVB]

Торрент Сидеров Личеров Размер
torrent_4374776.torrent
0 0 1.07 ГБ
Аватара пользователя
Солнышко
Сообщения: 22944
Зарегистрирован: 13 янв 2016, 22:10

Приглашает Борис Ноткин. Андрей Панин [2004, Документальный, интервью, DVB]

Сообщение Солнышко » 18 мар 2018, 21:26

Приглашает Борис Ноткин. Андрей Панин
#77Год выпуска: 2004
Страна: Россия
Жанр: Документальный, интервью
Продолжительность: 00:25:00
Перевод: Не требуется
Русские субтитры: нет
Описание: Жанр программы "Приглашает Борис Ноткин" - интервью. В гости к известному ведущему приходят популярные актёры, политики, спортсмены, государственные деятели. Большой журналистский опыт и неизменно доброжелательное отношение к гостям позволяют ведущему затрагивать в беседах практически любые темы: как они добивались успеха, преодолевали трудности, что помогало найти собственный путь, как складывается личная жизнь и каковы эстетические и вкусовые пристрастия гостя… А зрители в этой красочной мозаике могут увидеть примеры для подражания в быту и профессии, образе мыслей и манере поведения. Автор и ведущий - Борис Ноткин
В этом выпуске:
Программа напомнит зрителю, каким выдающимся актером и замечательным человеком был Андрей Панин. Актер откровенно расскажет о своем отношении к любви и супружеству в современном мире, к прототипам своих героев. Наверняка запомнятся его оценки Бориса Савенкова, которого он сыграл в фильме «Всадник по имени Смерть». Мысли Андрея Панина поражают своей актуальностью и сегодня.
Доп. информация: Релиз -

Рип чистый. Без посторонних надписей. Выкладывается как есть.
Качество: DVB
Формат: MPG
Видео кодек: MPG2
Аудио кодек: MP2
Видео: 720x576 @ (4:3) 25.00fps 5 810 Kbps, 0.560 bit/pixel
Аудио: MPEG Audio 48000Hz stereo 192 Кбит/сек

Код: Выделить всё

General
Complete name                            : N:\ВЫКЛАДКА\DVB\Документальные фильмы\Приглашает Борис Ноткин. Андрей Панин (2004, Документальный, DVB) (MYDIMKA).mpg
Format                                   : MPEG-PS
File size                                : 1.07 GiB
Duration                                 : 25mn 0s
Overall bit rate mode                    : Variable
Overall bit rate                         : 6 120 Kbps
Video
ID                                       : 224 (0xE0)
Format                                   : MPEG Video
Format version                           : Version 2
Format profile                           : Main@Main
Format settings, BVOP                    : Yes
Format settings, Matrix                  : Custom
Format settings, GOP                     : M=3, N=24
Duration                                 : 25mn 0s
Bit rate mode                            : Variable
Bit rate                                 : 5 806 Kbps
Maximum bit rate                         : 15.0 Mbps
Width                                    : 720 pixels
Height                                   : 576 pixels
Display aspect ratio                     : 4:3
Frame rate                               : 25.000 fps
Standard                                 : PAL
Color space                              : YUV
Chroma subsampling                       : 4:2:0
Bit depth                                : 8 bits
Scan type                                : Interlaced
Scan order                               : Top Field First
Compression mode                         : Lossy
Bits/(Pixel*Frame)                       : 0.560
Stream size                              : 1.01 GiB (95%)
Audio
ID                                       : 192 (0xC0)
Format                                   : MPEG Audio
Format version                           : Version 1
Format profile                           : Layer 2
Duration                                 : 25mn 0s
Bit rate mode                            : Constant
Bit rate                                 : 192 Kbps
Channel(s)                               : 2 channels
Sampling rate                            : 48.0 KHz
Compression mode                         : Lossy
Delay relative to video                  : 23ms
Stream size                              : 34.3 MiB (3%)

У вас нет необходимых прав для просмотра вложений в этом сообщении.