Юрий Норштейн. Монолог (Наталия Урвачева) [2016, биография, документальный, мультипликация, SATRip]

Торрент Сидеров Личеров Размер
torrent_5287004.torrent
0 0 638.55 МБ
Аватара пользователя
Солнышко
Сообщения: 22944
Зарегистрирован: 13 янв 2016, 22:10

Юрий Норштейн. Монолог (Наталия Урвачева) [2016, биография, документальный, мультипликация, SATRip]

Сообщение Солнышко » 18 мар 2018, 21:27

Юрий Норштейн. Монолог
Дата/Год выпуска: 2016
Страна: Россия
Жанр: биография, документальный, мультипликация
Продолжительность: 00:51:26
Перевод: Не требуется
Русские субтитры: нет
Оригинальная аудиодорожка: русский
Режиссер: Наталия Урвачева
Телеканал: КультураОписание: Что такое искусство для самого автора? Что такое процесс создания фильма для самого режиссера? Кто становится прообразом наиболее ярких персонажей и почему в них могут соединиться черты разных людей? Что такое ирония в работе художника? На все эти вопросы отвечает знаменитый режиссер, автор фильмов, признанных шедеврами.
Юрий Норштейн впускает зрителя в мастерскую, где создается его фильм "Шинель", уже овеянный мифами, и вспоминает свою работу на студии "Союзмультфильм", говорит о том влиянии, которое оказало на него сотрудничество с Федором Хитруком, Борисом Дежкиным и другими мастерами анимации; какую роль в создании ткани его фильмов играет жена и соавтор художник Франческа Ярбусова, а также обсуждает ранние шедевры киногротеска и эксцентрики - фильмы с участием Сергея Мартинсона и Михаила Чехова.Сэмпл: https://www.sendspace.com/file/qoyket
качество: SATRip
формат: AVI
Видео: Xvid 704x528 (4:3) 25fps ~1536kbps
Аудио: MP3 48000Hz stereo 192kbps

Код: Выделить всё

General
Complete name                            : J:\Мои раздачи\Юрий Норштейн. Монолог.avi
Format                                   : AVI
Format/Info                              : Audio Video Interleave
File size                                : 639 MiB
Duration                                 : 51mn 26s
Overall bit rate                         : 1 736 Kbps
Video
ID                                       : 0
Format                                   : MPEG-4 Visual
Format profile                           : Advanced Simple@L5
Format settings, BVOP                    : 2
Format settings, QPel                    : No
Format settings, GMC                     : No warppoints
Format settings, Matrix                  : Default (H.263)
Codec ID                                 : XVID
Codec ID/Hint                            : XviD
Duration                                 : 51mn 26s
Bit rate                                 : 1 534 Kbps
Width                                    : 704 pixels
Height                                   : 528 pixels
Display aspect ratio                     : 4:3
Frame rate                               : 25.000 fps
Color space                              : YUV
Chroma subsampling                       : 4:2:0
Bit depth                                : 8 bits
Scan type                                : Progressive
Compression mode                         : Lossy
Bits/(Pixel*Frame)                       : 0.165
Stream size                              : 564 MiB (88%)
Writing library                          : XviD 64
Audio
ID                                       : 1
Format                                   : MPEG Audio
Format version                           : Version 1
Format profile                           : Layer 3
Mode                                     : Joint stereo
Mode extension                           : MS Stereo
Codec ID                                 : 55
Codec ID/Hint                            : MP3
Duration                                 : 51mn 25s
Bit rate mode                            : Constant
Bit rate                                 : 192 Kbps
Channel(s)                               : 2 channels
Sampling rate                            : 48.0 KHz
Compression mode                         : Lossy
Stream size                              : 70.6 MiB (11%)
Alignment                                : Split accross interleaves
Interleave, duration                     : 40 ms (1.00 video frame)
Interleave, preload duration             : 500 ms
У вас нет необходимых прав для просмотра вложений в этом сообщении.