Заговоренный. Три войны казака Недорубова (Александр Ладнов) [2011, Документальный, история, военный, биография, SATRip]

Торрент Сидеров Личеров Размер
torrent_4687887.torrent
0 0 526.09 МБ
Аватара пользователя
Солнышко
Сообщения: 22944
Зарегистрирован: 13 янв 2016, 22:10

Заговоренный. Три войны казака Недорубова (Александр Ладнов) [2011, Документальный, история, военный, биография, SATRip]

Сообщение Солнышко » 18 мар 2018, 21:27

Заговоренный. Три войны казака Недорубова
Год выпуска: 2011
Страна: Россия
Жанр: Документальный, история, военный, биография
Продолжительность: 00:40:01
Перевод: Не требуется
Режиссер: Александр Ладнов
Описание: Константин Недорубов - участник Первой мировой, Гражданской и Великой Отечественной войн, кавалер трех Георгиевских крестов и Золотой Звезды Героя Советского Союза. Он вошел в легенды и песни Донского казачества.
Качество: SATRip
Формат: AVI
Видео: XviD, 720x448, (1.6:1), 1700 kbps avg, 25 fps, 0.21 bit/pixel
Аудио: 48 kHz, MPEG Audio Layer 3, 2 ch, ~128.00 kbps avg

Код: Выделить всё

General
Complete name                            : K:\Заговоренный. Три войны казака Недорубова.avi
Format                                   : AVI
Format/Info                              : Audio Video Interleave
File size                                : 526 MiB
Duration                                 : 40mn 1s
Overall bit rate                         : 1 837 Kbps
Writing application                      : VirtualDubMod 1.5.10.3 | www.virtualdub-fr.org || (build 2550/release)
Writing library                          : VirtualDubMod build 2550/release
Video
ID                                       : 0
Format                                   : MPEG-4 Visual
Format profile                           : Advanced Simple@L5
Format settings, BVOP                    : 2
Format settings, QPel                    : No
Format settings, GMC                     : No warppoints
Format settings, Matrix                  : Default (MPEG)
Codec ID                                 : XVID
Codec ID/Hint                            : XviD
Duration                                 : 40mn 1s
Bit rate                                 : 1 700 Kbps
Width                                    : 720 pixels
Height                                   : 448 pixels
Display aspect ratio                     : 16:10
Frame rate                               : 25.000 fps
Color space                              : YUV
Chroma subsampling                       : 4:2:0
Bit depth                                : 8 bits
Scan type                                : Progressive
Compression mode                         : Lossy
Bits/(Pixel*Frame)                       : 0.211
Stream size                              : 487 MiB (93%)
Writing library                          : XviD 1.2.1 (UTC 2008-12-04)
Audio
ID                                       : 1
Format                                   : MPEG Audio
Format version                           : Version 1
Format profile                           : Layer 3
Codec ID                                 : 55
Codec ID/Hint                            : MP3
Duration                                 : 40mn 1s
Bit rate mode                            : Constant
Bit rate                                 : 128 Kbps
Channel(s)                               : 2 channels
Sampling rate                            : 48.0 KHz
Compression mode                         : Lossy
Stream size                              : 36.6 MiB (7%)
Alignment                                : Aligned on interleaves
Interleave, duration                     : 40 ms (1.00 video frame)
Interleave, preload duration             : 504 ms
Writing library                          : LAME3.99r
Encoding settings                        : -m s -V 4 -q 0 -lowpass 17 -b 128
У вас нет необходимых прав для просмотра вложений в этом сообщении.