Под крышкой рояля Клода Боллинга / Dans le piano de Claude Bolling (Венсан Перро / Vincent Perrot) [2017, Франция, Бельгия, документальный, биографический, музыка, DVB] Original (Fre) + Sub (Rus, Eng, Fre, Deu)

Торрент Сидеров Личеров Размер
torrent_5413296.torrent
0 0 1.95 ГБ
Аватара пользователя
Солнышко
Сообщения: 22944
Зарегистрирован: 13 янв 2016, 22:10

Под крышкой рояля Клода Боллинга / Dans le piano de Claude Bolling (Венсан Перро / Vincent Perrot) [2017, Франция, Бельгия, документальный, биографический, музыка, DVB] Original (Fre) + Sub (Rus, Eng, Fre, Deu)

Сообщение Солнышко » 18 мар 2018, 21:27

Под крышкой рояля Клода Боллинга
Dans le piano de Claude Bolling
#77Дата/Год выпуска: 2017
Страна: Франция, Бельгия
Жанр: документальный, биографический, музыка
Продолжительность: 01:30:23
Перевод: Субтитры
Доп. инфо о переводе: русский перевод Е.Маньен (Éclair Media)
Русские субтитры: естьФормат субтитров: prerendered (IDX+SUB), softsub (SRT)
Доп. информация о субтитрах: русские, немецкие, нидерландские, румынские - (IDX+SUB); английские, французские - (SRT)
Оригинальная аудиодорожка: французский
Режиссер: Венсан Перро / Vincent Perrot
В ролях: Жак Дере, Ален Делон, Эдуар Молинаро, Филипп де Брока, Пьер Ардити
Телеканал: TV5MONDE Europe
Описание: 180 пластинок, 150 песен, музыка к 110 художественным и документальным фильмам, более 1'000 концертов... Он написал музыку к таким кинофильмам, как "Борсалино", "Борсалино и компания", "Потише, басы", "Одиночка", "Великолепный", "Полицейская история", "Троих нужно убрать" и др. Жизнь и карьера джазового пианиста и композитора Клода Боллинга к 60-летию его музыкального творчества.
Доп. информация: Hot Bird (13.0°E) DVB-S
качество: DVB
формат: MKV
Видео: MPEG Video 2, 720x576 (16:9), 25 fps, ~2830 kbps avg, 0.273 bit/pixel
Аудио: MPEG Audio 2, 2 ch, 48 kHz, ~192.00 kbps avg - французский

Код: Выделить всё

General
Unique ID                                : 249830403443157698054717653260104476227 (0xBBF395E363F138118C66F51CBCC5A643)
Complete name                            : [apreder]Dans_le_piano_de_Claude_Bolling(2017)DVB.mkv
Format                                   : Matroska
Format version                           : Version 2
File size                                : 1.95 GiB
Duration                                 : 1 h 30 min
Overall bit rate mode                    : Variable
Overall bit rate                         : 3 084 kb/s
Movie name                               : Dans le piano de Claude Bolling
Released date                            : 2017-00-00
Encoded date                             : UTC 2017-06-07 10:08:39
Writing application                      : mkvmerge v12.0.0 ('Trust / Lust') 64bit
Writing library                          : libebml v1.3.4 + libmatroska v1.4.5
Cover                                    : Yes
Attachments                              : cover.jpg / small_cover.jpg
DIRECTOR                                 : Vincent Perrot
GENRE                                    : Documentary
KEYWORDS                                 : rutracker.org
LAW_RATING                               : 12+
Video
ID                                       : 1
Format                                   : MPEG Video
Format version                           : Version 2
Format profile                           : Main@Main
Format settings, BVOP                    : Yes
Format settings, Matrix                  : Custom
Format settings, GOP                     : M=4, N=12
Format settings, picture structure       : Frame
Codec ID                                 : V_MPEG2
Codec ID/Info                            : MPEG 1 or 2 Video
Duration                                 : 1 h 30 min
Bit rate mode                            : Variable
Bit rate                                 : 2 830 kb/s
Width                                    : 720 pixels
Height                                   : 576 pixels
Display aspect ratio                     : 16:9
Frame rate mode                          : Constant
Frame rate                               : 25.000 FPS
Standard                                 : PAL
Color space                              : YUV
Chroma subsampling                       : 4:2:0
Bit depth                                : 8 bits
Scan type                                : Interlaced
Scan order                               : Top Field First
Compression mode                         : Lossy
Bits/(Pixel*Frame)                       : 0.273
Time code of first frame                 : 00:00:00:00
Time code source                         : Group of pictures header
GOP, Open/Closed                         : Open
GOP, Open/Closed of first frame          : Closed
Stream size                              : 1.79 GiB (92%)
Default                                  : Yes
Forced                                   : No
Audio
ID                                       : 2
Format                                   : MPEG Audio
Format version                           : Version 1
Format profile                           : Layer 2
Mode                                     : Joint stereo
Mode extension                           : Intensity Stereo + MS Stereo
Codec ID                                 : A_MPEG/L2
Codec ID/Hint                            : MP2
Duration                                 : 1 h 30 min
Bit rate mode                            : Constant
Bit rate                                 : 192 kb/s
Channel(s)                               : 2 channels
Sampling rate                            : 48.0 kHz
Compression mode                         : Lossy
Stream size                              : 124 MiB (6%)
Language                                 : French
Default                                  : Yes
Forced                                   : No
Text #1
ID                                       : 3
Format                                   : VobSub
Codec ID                                 : S_VOBSUB
Codec ID/Info                            : Picture based subtitle format used on DVDs
Language                                 : Russian
Default                                  : No
Forced                                   : No
Text #2
ID                                       : 4
Format                                   : UTF-8
Codec ID                                 : S_TEXT/UTF8
Codec ID/Info                            : UTF-8 Plain Text
Language                                 : English
Default                                  : No
Forced                                   : No
Text #3
ID                                       : 5
Format                                   : UTF-8
Codec ID                                 : S_TEXT/UTF8
Codec ID/Info                            : UTF-8 Plain Text
Language                                 : French
Default                                  : No
Forced                                   : No
Text #4
ID                                       : 6
Format                                   : VobSub
Codec ID                                 : S_VOBSUB
Codec ID/Info                            : Picture based subtitle format used on DVDs
Language                                 : German
Default                                  : No
Forced                                   : No
Text #5
ID                                       : 7
Format                                   : VobSub
Codec ID                                 : S_VOBSUB
Codec ID/Info                            : Picture based subtitle format used on DVDs
Language                                 : Dutch
Default                                  : No
Forced                                   : No
Text #6
ID                                       : 8
Format                                   : VobSub
Codec ID                                 : S_VOBSUB
Codec ID/Info                            : Picture based subtitle format used on DVDs
Language                                 : Romanian
Default                                  : No
Forced                                   : No



[3'685]
У вас нет необходимых прав для просмотра вложений в этом сообщении.