Ермолаев-Томин О.Ю. - Дыхательная гимнастика [подарочное издание Sanofi Aventis] [Ермолаев-Томин О.Ю., 2010 г., lossless

Тренинги личностного роста, НЛП, курсы по самомотивации

<t>Оценка торрента</t>

5
0
Голосов нет
4
0
Голосов нет
3
0
Голосов нет
2
0
Голосов нет
1
0
Голосов нет
 
Всего голосов: 0

Торрент Сидеров Личеров Размер
torrent_25096.torrent
0 0 181.42 МБ
Аватара пользователя
Таточка
Сообщения: 13173
Зарегистрирован: 08 янв 2012, 19:02

Ермолаев-Томин О.Ю. - Дыхательная гимнастика [подарочное издание Sanofi Aventis] [Ермолаев-Томин О.Ю., 2010 г., lossless

Сообщение Таточка » 02 июн 2012, 18:49

Дыхательная гимнастика
Год выпуска: 2010
Автор: Ермолаев-Томин О.Ю.
Композитор: Michael Stiart
Издательство: Мегалайнер
Кат.№: MLCD-1001
Тип аудиокниги: аудиокнига
Аудио кодек: APE
Битрейт аудио: lossless
Время звучания: 00:40:15
Описание:
Диск - подарочное издание фирмы Sanofi Aventis. Чтение одноголосое с музыкальным сопровождением, всего 10 треков. Сканы буклета, диска, обложек - в раздаче.
Отчёт ЕАС

Код: Выделить всё

Exact Audio Copy V0.99 prebeta 5 from 4. May 2009
Отчёт EAC об извлечении, выполненном 20. марта 2011, 17:53
Ермолаев-Томин / Дыхательная гимнастика
Дисковод: HL-DT-STDVDRAM GE20NU10Adapter: 3ID: 1
Режим чтения: Достоверность
Использование точного потока : Да
Отключение кэша аудио: Да
Использование указателей C2: Нет
Коррекция смещения при чтении: 667
Способность читать области Lead-in и Lead-out: Нет
Заполнение пропущенных сэмплов тишиной: Да
Удаление блоков с тишиной в начале и конце: Нет
При вычислениях CRC использовались нулевые сэмплы : Да
Интерфейс: Встроенный Win32-интерфейс для Win NT/2000
Выходной формат : Внутренние WAV-операции
Формат сэмплов: 44.100 Гц; 16 бит; стерео
TOC извлечённого CD
Трек |Старт| Длительность | Начальный сектор | Конечный сектор
---------------------------------------------------------------------
1|0:00.00 |2:32.54|0|11453
2|2:32.54 |2:17.59|11454|21787
3|4:50.38 |5:22.73|21788|46010
4| 10:13.36 |8:18.50|46011|83410
5| 18:32.11 |5:58.46|83411|110306
6| 24:30.57 |4:33.28|110307|130809
7| 29:04.10 |2:07.36|130810|140370
8| 31:11.46 |1:04.66|140371|145236
9| 32:16.37 |2:34.61|145237|156847
10| 34:51.23 |5:23.32|156848|181104
Характеристики диапазона извлечения и сообщения об ошибках
Выбранный диапазон
Имя файла C:\...\Ермолаев-Томин - Дыхательная гимнастика.wav
Пиковый уровень 98.0 %
Качество диапазона 100.0 %
CRC теста 58A52B54
CRC копии 58A52B54
Копирование... OK
Ошибок не произошло
Конец отчёта
Скриншот спектра частот
У вас нет необходимых прав для просмотра вложений в этом сообщении.