My Twang Guitar - The Roots of Rockabilly Lead Guitar [Игра на гитаре, DVDRip, ENG] (Видеоурок)

Гитара, бас гитара, балалайка, скрипка, виолончель и т.д.
Торрент Сидеров Личеров Размер
torrent_5021360.torrent
0 0 729.08 МБ
Аватара пользователя
Stepan
Администратор
Сообщения: 52386
Зарегистрирован: 05 ноя 2011, 20:36

My Twang Guitar - The Roots of Rockabilly Lead Guitar [Игра на гитаре, DVDRip, ENG] (Видеоурок)

Сообщение Stepan » 21 мар 2018, 00:30

My Twang Guitar - The Roots of Rockabilly Lead Guitar
Страна: USA
Тематика: Игра на гитаре
Тип раздаваемого материала: Видеоурок
Продолжительность: 02:03:12
Язык: Английский
Перевод: Отсутствует
Описание: My Twangy Guitar was recently named Best Rockabilly Guitar Lesson Site!
Be sure to check out our other Rockabilly lessons while you’re here!
The Roots of Rockabilly Rhythm Guitar
How to play Rockabilly Classics
Rockabilly Rules!
My customers get a lot of satisfaction out of learning a solo they’ve been trying to learn all of their lives. Many of my customers are working musicians who simply don’t have the time or patience to work out a guitar solo. I think it’s safe to say that 99.9% of all Rockabilly songs are I/IV/V chord progressions. This program is for the guys and gals that have the rhythm down and want to get right to the solo. If it’s worth about 1.50 to learn your favorite Rockabilly solo along with a high quality backing track, this program is for you!
This lesson program includes 33 classic rockabilly solos! You’ll learn classic solos in the styles of Cliff Gallup, Luther Perkins, Brian Setzer, Carl Perkins, Grady Martin and more. If the rockabilly licks and tricks aren’t in these solos, it ain’t worth knowin’! You’ll also get 25 different high quality backing tracks mastered in Izotope’s Complete Mastering System. 50 lessons means 50 complete lessons of 12 bars each with 25 different backing tracks!
Solo 1 – Be-Bop-A-Lula – First Solo
Solo 2 – Be-Bop-A-Lula – Second Solo
Solo 3 – Believe What You Say
Solo 4 – Completely Sweet
Solo 5 – Crazy, Crazy Lovin’
Solo 6 – Crazy Legs – First Solo
Solo 7 – Crazy Legs – Second Solo
Solo 8 – Cruisin’ – First Solo
Solo 9 – Cruisin’ – Second Solo
Solo 10 – Cruisin’ – Third Solo
Solo 11 – Fujiyama Mama
Solo 12 – Too Hip, Gotta Go
Solo 13 – Honey Don’t
Solo 14 – Jeanie, Jeanie, Jeanie
Solo 15 – Hoy, Hoy – First Solo
Solo 16 – Hoy, Hoy – Second Solo
Solo 17 – Well, I Knocked – First Solo
Solo 18 – Well, I Knocked – Second Solo
Solo 19 – Come On, Let’s Go
Solo 20 – Movie Mag
Solo 21 – Blue Suede Shoes
Solo 22 – One Hand Loose
Solo 23 – Ooby Dooby
Solo 24 – Race With The Devil – First Solo
Solo 25 – Race With The Devil – Second Solo
Solo 26 – Folsom Prison Blues
Solo 27 – Skinny Jim
Solo 28 – Black Slacks
Solo 29 – Stood Up
Solo 30 – Summertime Blues
Solo 31 – Ubangi Stomp – First Solo
Solo 32 – Ubangi Stomp – Second Solo
Solo 33 – Whole Lotta Shakin’
Доп. информация: Обещают научить играть соло из классических рокабилли-боевичков
Качество: dvdrip
Формат: AVI
Видео кодек: DivX 3 Low
Аудио кодек: MPEG Audio
Видео: MPEG-4 Visual at 769 Kbps; 640 x 400 (1.600) at 25.000 fps
Аудио: MPEG Audio at 96.0 Kbps; 2 channels, 44.1 KHz
General
Complete name : C:\_Guitar Video\_New Guitar Video\My.Twang.Guitar.The.Roots.Of.Rockabilly.Lead.Guitar.dvdrip\My Twang Guitar - The Roots of Rockabilly Lead Guitar\VTS_01_1.avi
Format : AVI
Format/Info : Audio Video Interleave
File size : 171 MiB
Duration : 27mn 15s
Overall bit rate : 877 Kbps
Writing application : Lavf50.6.0
Video
ID : 0
Format : MPEG-4 Visual
Codec ID : DIV3
Codec ID/Hint : DivX 3 Low
Duration : 27mn 15s
Bit rate : 769 Kbps
Width : 640 pixels
Height : 400 pixels
Display aspect ratio : 16:10
Frame rate : 25.000 fps
Color space : YUV
Chroma subsampling : 4:2:0
Bit depth : 8 bits
Compression mode : Lossy
Bits/(Pixel*Frame) : 0.120
Stream size : 150 MiB (88%)
Audio
ID : 1
Format : MPEG Audio
Format version : Version 1
Format profile : Layer 3
Mode : Joint stereo
Mode extension : MS Stereo
Codec ID : 55
Codec ID/Hint : MP3
Duration : 27mn 15s
Bit rate mode : Constant
Bit rate : 96.0 Kbps
Channel(s) : 2 channels
Sampling rate : 44.1 KHz
Compression mode : Lossy
Stream size : 18.7 MiB (11%)
Alignment : Aligned on interleaves
Interleave, duration : 26 ms (0.65 video frame)
Writing library : LAME3.98 (alpha)


У вас нет необходимых прав для просмотра вложений в этом сообщении.