Дмитрий Купцов и Георгий Яшагашвили Gypsy Jazz (Jazz Manouche) - мастер-класс Learnmusic на канале О2 тв, 01-02-2011 [20

Гитара, бас гитара, балалайка, скрипка, виолончель и т.д.
Торрент Сидеров Личеров Размер
torrent_3652997.torrent
0 0 1.65 ГБ
Аватара пользователя
Stepan
Администратор
Сообщения: 51624
Зарегистрирован: 05 ноя 2011, 20:36

Дмитрий Купцов и Георгий Яшагашвили Gypsy Jazz (Jazz Manouche) - мастер-класс Learnmusic на канале О2 тв, 01-02-2011 [20

Сообщение Stepan » 21 мар 2018, 00:33

Дмитрий Купцов и Георгий Яшагашвили Gypsy Jazz (Jazz Manouche) - Что такое цыганский джаз - мастер-класс Learnmusic на канале О2 тв, 01-02-2011
Страна: Россия
Тематика: музыка
Тип раздаваемого материала: Видеоурок
Продолжительность: 01:14:08
Год выпуска: 2011
Язык: Русский
Перевод: Не требуется
Описание: Выпуск программы Learnmusic на телеканале О2тв от 1 февраля 2011г. Мастер-класс на тему: "Gypsy Jazz (Jazz Manouche). Музыка легендарного Джанго Рейнхардта. История, техника, инструменты".
Рассказ о невероятно популярном стиле Gypsy Jazz (другое распространенное название - Jazz Manouche) мы давно хотели заснять в нашей программе.
В этот вечер о музыке легендарных братьев Ферре и Джанго Рейнхардта будут рассказывать два талантливых московских музыканта - основатели замечательного коллектива Djangoband (djangoband.ru), участники многочисленных российских и международных джаз-фестивалей, Дмитрий Купцов и Георгий Яшагашвили.
Речь пойдет, разумеется, об истории стиля, о самых заметных музыкантах выступающих сейчас на джазовой сцене в этом направлении (Angelo Debarre, Stochelo Rosenberg, Bireli Lagrene, Jimmy Rosenberg,
Dorado Schmitt, Fapy Lafertin, Tchavolo Schmitt и др.), а также о технике обучения этому искусству и о необходимом (достаточно необычном) инструментарии.
Доп. информация: «Djangoband» — коллектив, названный в честь великого французского гитариста Джанго Рейнхарда, исполняет музыку в стиле джаз-мануш — французский джаз с цыганским акцентом. Джаз-мануш — это виртуозная, очень позитивная музыка с присущим ей колоритом и обаянием Франции 30-х годов
В состав «Djangoband» входят две гитары и контрабас. Подобный выбор инструментов необычен для джаза. Но именно любовь Джанго Рейнхарда к струнным инструментам определила оригинальное звучание, отличающееся от всего, что было в джазе того времени, и принесла мировую известность его коллективу «Quintette du Hot Club de France». Полюбившаяся во многих странах его музыка вылилась в отдельное направление — джаз-мануш, который мы исполняем в России. Также к звучанию «Djangoband» примыкают инструменты характерные для этого стиля, такие как: скрипка, кларнет и, конечно же, вокал..
Коллектив «Djangoband» основан двумя гитаристами, большими поклонниками Джанго Рейнхарда, Дмитрием Купцовым и Георгием Яшагашвили. Будучи последователями стиля они исполняют эту музыку в «чистой», акустической традиции с присущим ей звучанием и настроением. Вместе играющие джаз-мануш уже более 6 лет, Дмитрий и Георгий демонстрируют этот стиль публике на многочисленных концертах и фестивалях.
Качество: SATRip
Формат: MP4
Видео кодек: MPEG4 Video (H264) 720x576 25.00fps
Аудио кодек: AAC 48000Hz stereo 189Kbps
Format : MPEG-4
Format profile : Base Media / Version 2
Codec ID : mp42
File size : 1.65 GiB
Duration : 1h 14mn
Overall bit rate : 3 193 Kbps
Encoded date : UTC 2011-07-12 14:16:38
Tagged date : UTC 2011-07-12 14:16:38
Video
ID : 1
Format : AVC
Format/Info : Advanced Video Codec
Format profile : Main@L3.1
Format settings, CABAC : Yes
Format settings, ReFrames : 4 frames
Codec ID : avc1
Codec ID/Info : Advanced Video Coding
Duration : 1h 14mn
Bit rate mode : Variable
Bit rate : 3 000 Kbps
Maximum bit rate : 6 000 Kbps
Width : 720 pixels
Height : 576 pixels
Display aspect ratio : 4:3
Frame rate mode : Constant
Frame rate : 25.000 fps
Standard : PAL
Color space : YUV
Chroma subsampling : 4:2:0
Bit depth : 8 bits
Scan type : Interlaced
Scan order : Bottom Field First
Bits/(Pixel*Frame) : 0.289
Stream size : 1.55 GiB (94%)
Language : English
Encoded date : UTC 2011-07-12 14:16:38
Tagged date : UTC 2011-07-12 14:16:38
Audio
ID : 2
Format : AAC
Format/Info : Advanced Audio Codec
Format version : Version 4
Format profile : LC
Codec ID : 40
Duration : 1h 14mn
Bit rate mode : Variable
Bit rate : 192 Kbps
Maximum bit rate : 297 Kbps
Channel(s) : 2 channels
Channel positions : Front: L R
Sampling rate : 48.0 KHz
Stream size : 100 MiB (6%)
Language : English
Encoded date : UTC 2011-07-12 14:16:38
Tagged date : UTC 2011-07-12 14:16:38
У вас нет необходимых прав для просмотра вложений в этом сообщении.