Hal Leonard - Guitar Play-Along Volume 43 - SRV Classics [2012, Игра на гитаре, DVDRip, ENG] (Видеоурок)

Гитара, бас гитара, балалайка, скрипка, виолончель и т.д.
Торрент Сидеров Личеров Размер
torrent_5018087.torrent
0 0 1.18 ГБ
Аватара пользователя
Stepan
Администратор
Сообщения: 52270
Зарегистрирован: 05 ноя 2011, 20:36

Hal Leonard - Guitar Play-Along Volume 43 - SRV Classics [2012, Игра на гитаре, DVDRip, ENG] (Видеоурок)

Сообщение Stepan » 21 мар 2018, 00:41

Hal Leonard - Guitar Play-Along Volume 43 - SRV Classics
Страна: USA
Тематика: Игра на гитаре
Тип раздаваемого материала: Видеоурок
Продолжительность: 02:12:00
Год выпуска: 2012
Язык: Английский
Перевод: Отсутствует
Описание: The Guitar Play Along DVD series lets you hear and see how to play songs like never before. Just watch, listen and learn! Each song starts with a lesson from a professional guitar teacher. Then, the teacher performs the complete song along with professionally recorded backing tracks. You can choose to turn the guitar off if you want to play along or leave the guitar in the mix to hear how it should sound. You can also choose from multiple viewing options; fret hand with tab, wide view with tab, pick & fret hand close-up, and others.
This volume includes 8 legendary SRV tunes: Ain't Gone 'n' Give up on Love • Cold Shot • Crossfire • Honey Bee • Life Without You • Mary Had a Little Lamb • Rude Mood • The Sky Is Crying.
Доп. информация: Вас научит играть вещи SRV
Качество: dvdrip
Формат: MPEG-4
Видео кодек: AVC
Аудио кодек: AAC
Видео: AVC at 1 092 Kbps; 853 x 480 (1.777) at 29.970 fps
Аудио: AAC at 129 Kbps; 2 channels, 48.0 KHz
General
Format : MPEG-4
Format profile : Base Media / Version 2
Codec ID : mp42
File size : 32.1 MiB
Duration : 3mn 39s
Overall bit rate mode : Variable
Overall bit rate : 1 228 Kbps
Writing application : HandBrake 0.10.1 2015030800
Video
ID : 1
Format : AVC
Format/Info : Advanced Video Codec
Format profile : Main@L4
Format settings, CABAC : Yes
Format settings, ReFrames : 4 frames
Codec ID : avc1
Codec ID/Info : Advanced Video Coding
Duration : 3mn 39s
Bit rate : 1 092 Kbps
Width : 853 pixels
Height : 480 pixels
Display aspect ratio : 16:9
Original display aspect ratio : 16:9
Frame rate mode : Constant
Frame rate : 29.970 fps
Standard : NTSC
Color space : YUV
Chroma subsampling : 4:2:0
Bit depth : 8 bits
Scan type : Progressive
Bits/(Pixel*Frame) : 0.105
Stream size : 28.5 MiB (89%)
Writing library : x264 core 142 r2479 dd79a61
Encoding settings : cabac=1 / ref=1 / deblock=1:0:0 / analyse=0x1:0x111 / me=hex / subme=2 / psy=1 / psy_rd=1.00:0.00 / mixed_ref=0 / me_range=16 / chroma_me=1 / trellis=0 / 8x8dct=0 / cqm=0 / deadzone=21,11 / fast_pskip=1 / chroma_qp_offset=0 / threads=12 / lookahead_threads=3 / sliced_threads=0 / nr=0 / decimate=1 / interlaced=0 / bluray_compat=0 / constrained_intra=0 / bframes=3 / b_pyramid=2 / b_adapt=1 / b_bias=0 / direct=1 / weightb=1 / open_gop=0 / weightp=1 / keyint=300 / keyint_min=30 / scenecut=40 / intra_refresh=0 / rc_lookahead=10 / rc=crf / mbtree=1 / crf=20.0 / qcomp=0.60 / qpmin=0 / qpmax=69 / qpstep=4 / vbv_maxrate=20000 / vbv_bufsize=25000 / crf_max=0.0 / nal_hrd=none / filler=0 / ip_ratio=1.40 / aq=1:1.00
Color range : Limited
Color primaries : BT.601 NTSC
Transfer characteristics : BT.709
Matrix coefficients : BT.601
Audio
ID : 2
Format : AAC
Format/Info : Advanced Audio Codec
Format profile : LC
Codec ID : 40
Duration : 3mn 38s
Bit rate mode : Variable
Bit rate : 129 Kbps
Channel(s) : 2 channels
Channel positions : Front: L R
Sampling rate : 48.0 KHz
Compression mode : Lossy
Stream size : 3.37 MiB (11%)
Title : Stereo / Stereo


У вас нет необходимых прав для просмотра вложений в этом сообщении.