The Woodshed - SRV Style Solo Matrix - Beginners Bundle [2015, H.264, DVDRip, ENG] (Видеоурок)

Гитара, бас гитара, балалайка, скрипка, виолончель и т.д.
Торрент Сидеров Личеров Размер
torrent_5039998.torrent
0 0 5.86 ГБ
Аватара пользователя
Stepan
Администратор
Сообщения: 52269
Зарегистрирован: 05 ноя 2011, 20:36

The Woodshed - SRV Style Solo Matrix - Beginners Bundle [2015, H.264, DVDRip, ENG] (Видеоурок)

Сообщение Stepan » 21 мар 2018, 00:43

SRV Style Solo Matrix - Beginners Bundle


Производитель: The Woodshed
Тип раздаваемого материала: Видеоурок
Сайт производителя: texasbluesalley.com/woodshed/full/srv-style-solo-matrix
Автор: Stevie Ray Vaughan
Продолжительность: 12:02:09
Год выпуска: 2015
Язык: Английский
Перевод: Отсутствует
Описание: Наиболее полный набор SRV-основное внимание было уделено уроки. Вы узнаете о наших девчат вдохновленные его наиболее популярных песен. Каждый курс предлагает наших девчат на 3-х разных уровней квалификации.
The most comprehensive set of SRV-focused lessons ever made. You'll learn solos inspired by his most popular songs. Each course offers solos at 3 different skill levels:
  • Beginner - easy to get started with
    Intermediate - begin to add speed & technique
    Advanced - plenty of speed and intensity
    I teach every note of each solo, from beginner to advanced. You'll get tablature and backing tracks with each course. There is no better way to start learning Stevie's style of playing.

    Качество: DVDRip
    Формат: MOV
    Видео кодек: H.264
    Аудио кодек: AAC
    Видео: AVC, 960x540, 16:9, 30.000 fps, ~ 999 Kbps
    Аудио: AAC, 48.0 KHz, ~ 128.0 Kbps, 2 channels
General
Format : QuickTime
Format/Info : Original Apple specifications
File size : 456 MiB
Duration : 56mn 21s
Overall bit rate : 1 132 Kbps
Album : Breakneck Pace
Performer : StevieSnacks.com
Genre : Blues Guitar Lessons
Recorded date : 2013
Encoded date : UTC 2013-12-13 07:59:22
Tagged date : UTC 2013-12-15 22:05:32
Cover : Yes
Video
ID : 1
Format : AVC
Format/Info : Advanced Video Codec
Format profile : High@L4.1
Format settings, CABAC : Yes
Format settings, ReFrames : 2 frames
Codec ID : avc1
Codec ID/Info : Advanced Video Coding
Duration : 56mn 21s
Bit rate : 999 Kbps
Width : 960 pixels
Height : 540 pixels
Display aspect ratio : 16:9
Frame rate mode : Constant
Frame rate : 29.970 fps
Color space : YUV
Chroma subsampling : 4:2:0
Bit depth : 8 bits
Scan type : Interlaced
Original scan type : Progressive
Scan type, store method : Interleaved fields
Scan order : Top Field First
Bits/(Pixel*Frame) : 0.064
Stream size : 403 MiB (88%)
Language : English
Encoded date : UTC 2013-12-13 07:59:22
Tagged date : UTC 2013-12-15 22:05:32
Color range : Limited
Color primaries : BT.709
Transfer characteristics : BT.709
Matrix coefficients : BT.709
colour_primaries_Original : BT.601 NTSC
matrix_coefficients_Original : BT.601
Audio
ID : 2
Format : AAC
Format/Info : Advanced Audio Codec
Format profile : LC
Codec ID : 40
Duration : 56mn 17s
Source duration : 56mn 21s
Bit rate mode : Constant
Bit rate : 128 Kbps
Channel(s) : 2 channels
Channel positions : Front: L R
Sampling rate : 48.0 KHz
Compression mode : Lossy
Stream size : 50.1 MiB (11%)
Source stream size : 50.2 MiB (11%)
Language : English
Encoded date : UTC 2013-12-13 07:59:22
Tagged date : UTC 2013-12-13 07:59:22
Menu
ID : 3
Codec ID : tx3g
Duration : 56mn 21s
Title : Chapter Track
Language : English
Encoded date : UTC 2013-12-15 22:05:32
Tagged date : UTC 2013-12-15 22:05:32
Source duration : 3381181
Source frame count : 22
Source stream size : 380
Frame count : 22
Stream size : 380
Bit rate mode : VBR
У вас нет необходимых прав для просмотра вложений в этом сообщении.