Scotty West - Absolutely Understand Guitar [2017, Гитара, DVDRip, ENG] (Видеоурок)

Гитара, бас гитара, балалайка, скрипка, виолончель и т.д.
Торрент Сидеров Личеров Размер
torrent_5490214.torrent
0 0 21.07 ГБ
Аватара пользователя
Stepan
Администратор
Сообщения: 52267
Зарегистрирован: 05 ноя 2011, 20:36

Scotty West - Absolutely Understand Guitar [2017, Гитара, DVDRip, ENG] (Видеоурок)

Сообщение Stepan » 22 мар 2018, 20:41

Scotty West - Absolutely Understand Guitar

Страна: USA
Тематика: Гитара
Тип раздаваемого материала: Видеоурок
Продолжительность: 32:22:23
Год выпуска: 2017
Язык: Английский
Перевод: Отсутствует
Качество: DVDRip
Формат: MP4
Видео кодек: AVC
Аудио кодек: AAC
Видео: AVC, 704X528, 4:3, 1206 kbps, 30 fps
Аудио: AAC, 160 kbps, 48 kHz, 2 ch
Описание: Теория музыки для гитариста.

Код: Выделить всё

Формат                                   : MPEG-4
Профиль формата                          : Base Media / Version 2
Идентификатор кодека                     : mp42 (mp42/isom/avc1)
Режим общего битрейта                    : Переменный
Общий поток                              : 1371 Кбит/сек
Программа кодирования                    : HandBrake 0.9.8 2012071700
Видео
Идентификатор                            : 1
Формат                                   : AVC
Формат/Информация                        : Advanced Video Codec
Профиль формата                          : Main@L3
Параметр CABAC формата                   : Да
Параметр ReFrames формата                : 4 кадра
Идентификатор кодека                     : avc1
Идентификатор кодека/Информация          : Advanced Video Coding
Битрейт                                  : 1206 Кбит/сек
Ширина                                   : 704 пикселя
Высота                                   : 528 пикселей
Соотношение сторон                       : 4:3
Режим частоты кадров                     : Переменный
Частота кадров                           : 29,922 кадров/сек
Минимальная частота кадров               : 9,990 кадров/сек
Максимальная частота кадров              : 29,970 кадров/сек
Цветовое пространство                    : YUV
Субдискретизация насыщенности            : 4:2:0
Битовая глубина                          : 8 бит
Тип развёртки                            : Прогрессивная
Бит/(Пиксели*Кадры)                      : 0.119
Размер потока                            : 519 Мбайт (88%)
Библиотека кодирования                   : x264 core 120
Цветовой диапазон                        : Limited
Основные цвета                           : BT.601 NTSC
Характеристики трансфера                 : BT.709
Коэффициенты матрицы                     : BT.601
Аудио
Идентификатор                            : 2
Формат                                   : AAC
Формат/Информация                        : Advanced Audio Codec
Профиль формата                          : LC
Идентификатор кодека                     : 40
Вид битрейта                             : Переменный
Битрейт                                  : 160 Кбит/сек
Максимальный битрейт                     : 211 Кбит/сек
Каналы                                   : 2 канала
Расположение каналов                     : Front: L R
Частота                                  : 48,0 КГц
Частота кадров                           : 46,875 кадров/сек (1024 spf)
Метод сжатия                             : С потерями
Размер потока                            : 68,8 Мбайт (12%)
Заголовок                                : Stereo
У вас нет необходимых прав для просмотра вложений в этом сообщении.