[Lick Library] Jam with George Lynch [2015, H.264, DVDRip, ENG] (Видеоурок)

Гитара, бас гитара, балалайка, скрипка, виолончель и т.д.
Торрент Сидеров Личеров Размер
torrent_5034382.torrent
0 0 2.68 ГБ
Аватара пользователя
Stepan
Администратор
Сообщения: 52267
Зарегистрирован: 05 ноя 2011, 20:36

[Lick Library] Jam with George Lynch [2015, H.264, DVDRip, ENG] (Видеоурок)

Сообщение Stepan » 22 мар 2018, 20:53

Jam with George Lynch
Страна: USA
Производитель: Lick Library
Тип раздаваемого материала: Видеоурок
Сайт производителя: http://www.licklibrary.com/store/george ... orge-lynch
Автор: Danny Gill
Продолжительность: 03:39:49
Год выпуска: 2015
Язык: Английский
Перевод: Отсутствует
Описание: Денни Гилл учит играть вещи легендарного Джорджа Линча - гитариста группы Dokken..
Includes guitar lessons and guitar jam tracks, lessons presented by Danny Gill
This excellent DVD will show you how to nail seven great songs by this US heavy metal legend. Learn each song and then perform along with the guitar jam tracks;
Wicked Sensation
Tooth And Nail
River Of Love
Mr Scary
Kiss Of Death
Dream Warriors
Lightning Strikes Again

Качество: DVDRip
Формат: MP4
Видео кодек: H.264
Аудио кодек: AAC
Видео: AVC, 1920x1080, 16:9, 25.000 fps, ~ 1500 Kbps
Аудио: AAC, 48.0 KHz, ~ 123.0 Kbps, 2 channels
General
Complete name : C:\_Guitar Video\_New Guitar Video\Lick Library - Jam with George Lynch - Danny Gill\1_Intro.mp4
Format : MPEG-4
Format profile : Base Media
Codec ID : isom
File size : 6.07 MiB
Duration : 31s 467ms
Overall bit rate mode : Variable
Overall bit rate : 1 618 Kbps
Encoded date : UTC 2015-01-29 13:35:53
Tagged date : UTC 2015-01-29 13:35:53
Video
ID : 1
Format : AVC
Format/Info : Advanced Video Codec
Format profile : High@L4
Format settings, CABAC : Yes
Format settings, ReFrames : 4 frames
Codec ID : avc1
Codec ID/Info : Advanced Video Coding
Duration : 31s 320ms
Bit rate : 1 500 Kbps
Maximum bit rate : 6 696 Kbps
Width : 1 920 pixels
Height : 1 080 pixels
Display aspect ratio : 16:9
Frame rate mode : Constant
Frame rate : 25.000 fps
Color space : YUV
Chroma subsampling : 4:2:0
Bit depth : 8 bits
Scan type : Progressive
Bits/(Pixel*Frame) : 0.029
Stream size : 5.59 MiB (92%)
Writing library : x264 core 144 r2525kMod 40bb568
Encoded date : UTC 2015-01-29 13:35:53
Tagged date : UTC 2015-01-29 13:35:53
Audio
ID : 2
Format : AAC
Format/Info : Advanced Audio Codec
Format profile : LC
Codec ID : 40
Duration : 31s 467ms
Bit rate mode : Variable
Bit rate : 123 Kbps
Maximum bit rate : 136 Kbps
Channel(s) : 2 channels
Channel positions : Front: L R
Sampling rate : 48.0 KHz
Compression mode : Lossy
Stream size : 473 KiB (8%)
Encoded date : UTC 2015-01-29 13:35:24
Tagged date : UTC 2015-01-29 13:35:53
Requested By:
У вас нет необходимых прав для просмотра вложений в этом сообщении.