Homespun - Conquer The Challenge Of The Steady Thumb! - The Ultimate Fingerpicking Starter Taught By Happy Traum [2017, Гитара, DVDRip, PDF, ENG] (Видеоурок)

Гитара, бас гитара, балалайка, скрипка, виолончель и т.д.
Торрент Сидеров Личеров Размер
torrent_5496457.torrent
0 0 733.71 МБ
Аватара пользователя
Stepan
Администратор
Сообщения: 52388
Зарегистрирован: 05 ноя 2011, 20:36

Homespun - Conquer The Challenge Of The Steady Thumb! - The Ultimate Fingerpicking Starter Taught By Happy Traum [2017, Гитара, DVDRip, PDF, ENG] (Видеоурок)

Сообщение Stepan » 22 мар 2018, 20:55

Conquer The Challenge Of The Steady Thumb! - The Ultimate Fingerpicking Starter

Страна: USA
Тематика: Гитара
Тип раздаваемого материала: Видеоурок
Продолжительность: 01:20:00
Год выпуска: 2017
Язык: Английский
Перевод: Отсутствует
Качество: DVDRip
Формат: MP4
Видео кодек: AVC
Аудио кодек: AAC
Видео: AVC, 880X496, 16:9, 1000 kbps, 60 fps
Аудио: AAC, 256 kbps, 44kHz, 2 ch
In this Homespun video tutorial series, master thumbpicker Happy Traum reveals ways to develop and keep your groove steady and in-time.
Chapter 1 - Happy welcomes you to the series after playing some acoustic guitar and explains what we'll be learning.
Chapter 2 - Moving forward, Happy shows you more fingering techniques to help you feel comfortable with this style.
Chapter 3 - In this video, Happy shows you a few things to help your thumbing become more controlled and confident.
Chapter 4 - Happy talks about Syncopation in 4/4 time, and the concepts behind playing rhythmically with your thumb.
Chapter 5 - Moving forward, Happy shows you a lick in the key of E. Happy then slows things down and explains each part so you can get it down.
Chapter 6 - In this video, Happy discusses improvising in this bluesy format, as well as some advice on timing and accuracy.

Код: Выделить всё

[b]Формат                                   : MPEG-4
Профиль формата                          : Base Media
Идентификатор кодека                     : isom (isom/iso2/avc1/mp41)
Общий поток                              : 1297 Кбит/сек
Программа кодирования                    : Lavf56.36.100
[/b]Видео
Идентификатор                            : 1
Формат                                   : AVC
Формат/Информация                        : Advanced Video Codec
Профиль формата                          : Main@L4
Параметр CABAC формата                   : Да
Параметр ReFrames формата                : 4 кадра
Идентификатор кодека                     : avc1
Идентификатор кодека/Информация          : Advanced Video Coding
Битрейт                                  : 1032 Кбит/сек
Ширина                                   : 880 пикселей
Высота                                   : 496 пикселей
Соотношение сторон                       : 16:9
Режим частоты кадров                     : Переменный
Частота кадров                           : 29,970 (29970/1000) кадров/сек
Минимальная частота кадров               : 14,985 кадров/сек
Максимальная частота кадров              : 29,970 кадров/сек
Цветовое пространство                    : YUV
Субдискретизация насыщенности            : 4:2:0
Битовая глубина                          : 8 бит
Тип развёртки                            : Прогрессивная
Бит/(Пиксели*Кадры)                      : 0.079
Размер потока                            : 79,6 Мбайт (80%)
Библиотека кодирования                   : x264 core 142 r2479 dd79a61
Настройки программы                      : cabac=1 / ref=1 / deblock=1:0:0 / analyse=0x1:0x111 / me=hex / subme=2 / psy=1 / psy_rd=1.00:0.00 / mixed_ref=0 / me_range=16 / chroma_me=1 / trellis=0 / 8x8dct=0 / cqm=0 / deadzone=21,11 / fast_pskip=1 / chroma_qp_offset=0 / threads=12 / lookahead_threads=3 / sliced_threads=0 / nr=0 / decimate=1 / interlaced=0 / bluray_compat=0 / constrained_intra=0 / bframes=3 / b_pyramid=2 / b_adapt=1 / b_bias=0 / direct=1 / weightb=1 / open_gop=0 / weightp=1 / keyint=300 / keyint_min=30 / scenecut=40 / intra_refresh=0 / rc_lookahead=10 / rc=2pass / mbtree=1 / bitrate=1032 / ratetol=1.0 / qcomp=0.60 / qpmin=0 / qpmax=69 / qpstep=4 / cplxblur=20.0 / qblur=0.5 / vbv_maxrate=20000 / vbv_bufsize=25000 / nal_hrd=none / filler=0 / ip_ratio=1.40 / aq=1:1.00
Цветовой диапазон                        : Limited
Основные цвета                           : BT.601 NTSC
Характеристики трансфера                 : BT.709
Коэффициенты матрицы                     : BT.601
Аудио
Идентификатор                            : 2
Формат                                   : AAC
Формат/Информация                        : Advanced Audio Codec
Профиль формата                          : LC
Идентификатор кодека                     : 40
Вид битрейта                             : Постоянный
Битрейт                                  : 256 Кбит/сек
Каналы                                   : 2 канала
Расположение каналов                     : Front: L R
Частота                                  : 48,0 КГц
Частота кадров                           : 46,875 кадров/сек (1024 spf)
Метод сжатия                             : С потерями
Размер потока                            : 19,7 Мбайт (20%)
Язык                                     : English
Default                                  : Да
Alternate group                          : 1
У вас нет необходимых прав для просмотра вложений в этом сообщении.