Greg Voros - Learn And Master Guitar Setup And Maintenance [2010, Гитара, DVDRip, ENG] (Видеоурок)

Гитара, бас гитара, балалайка, скрипка, виолончель и т.д.
Торрент Сидеров Личеров Размер
torrent_5482144.torrent
0 0 2.49 ГБ
Аватара пользователя
Stepan
Администратор
Сообщения: 52270
Зарегистрирован: 05 ноя 2011, 20:36

Greg Voros - Learn And Master Guitar Setup And Maintenance [2010, Гитара, DVDRip, ENG] (Видеоурок)

Сообщение Stepan » 22 мар 2018, 20:59

Greg Voros - Learn And Master Guitar Setup And Maintenance

Страна: USA
Тематика: Гитара
Тип раздаваемого материала: Видеоурок
Продолжительность: 02:30:00
Год выпуска: 2010
Язык: Английский
Перевод: Отсутствует
Качество: DVDRip
Формат: AVI
Видео кодек: H.264
Аудио кодек: AC3
Видео: AVC, 640X432, 3:2, 1234 kbps, 29.970 fps
Аудио: AC3, 48 kHz, 384 kbps, 2 ch
Описание: Видеопособие по настройке, ремонту и уходу за гитарой.

Код: Выделить всё

Формат                                   : AVI
Формат/Информация                        : Audio Video Interleave
Размер файла                             : 777 Мбайт
Общий поток                              : 1630 Кбит/сек
Программа кодирования                    : Lavf52.78.4
Видео
Идентификатор                            : 0
Формат                                   : AVC
Формат/Информация                        : Advanced Video Codec
Профиль формата                          : Main@L3
Параметр CABAC формата                   : Да
Параметр ReFrames формата                : 2 кадра
Идентификатор кодека                     : H264
Битрейт                                  : 1234 Кбит/сек
Ширина                                   : 640 пикселей
Высота                                   : 432 пикселя
Соотношение сторон                       : 3:2
Частота кадров                           : 29,970 (30000/1001) кадров/сек
Цветовое пространство                    : YUV
Субдискретизация насыщенности            : 4:2:0
Битовая глубина                          : 8 бит
Тип развёртки                            : Прогрессивная
Бит/(Пиксели*Кадры)                      : 0.149
Размер потока                            : 588 Мбайт (76%)
Библиотека кодирования                   : x264 core
Цветовой диапазон                        : Limited
Основные цвета                           : BT.601 NTSC
Характеристики трансфера                 : BT.709
Коэффициенты матрицы                     : BT.601
Аудио
Идентификатор                            : 1
Формат                                   : AC-3
Формат/Информация                        : Audio Coding 3
Расширение режима                        : CM (complete main)
Параметр Endianness формата              : Big
Идентификатор кодека                     : 2000
Вид битрейта                             : Постоянный
Битрейт                                  : 384 Кбит/сек
Каналы                                   : 2 канала
Расположение каналов                     : Front: L R
Частота                                  : 48,0 КГц
Частота кадров                           : 31,250 кадров/сек (1536 spf)
Метод сжатия                             : С потерями
Размер потока                            : 183 Мбайт (24%)
Выравнивание                             : Соединение по промежуткам
Продолжительность промежутка             : 32  мс. (0,96 видеокадр)
Время предзагрузки промежутка            : 32  мс.
У вас нет необходимых прав для просмотра вложений в этом сообщении.