Михаил Суджян - LearnMusic Игра на гитаре медиатором [2011, Музыка, SATRip, RUS] (Видеоурок)

Гитара, бас гитара, балалайка, скрипка, виолончель и т.д.
Торрент Сидеров Личеров Размер
torrent_4003603.torrent
0 0 666.72 МБ
Аватара пользователя
Stepan
Администратор
Сообщения: 52357
Зарегистрирован: 05 ноя 2011, 20:36

Михаил Суджян - LearnMusic Игра на гитаре медиатором [2011, Музыка, SATRip, RUS] (Видеоурок)

Сообщение Stepan » 22 мар 2018, 21:00

Михаил Суджян - LearnMusic Игра на гитаре медиатором
Страна: Россия
Тематика: Музыка
Тип раздаваемого материала: Видеоурок
Продолжительность: 00:10:44
Год выпуска: 2011
Язык: Русский
Перевод: Не требуется
Описание: Заслуженный работник культуры РФ, Педагог ГМКЭДИ, Лауреат всесоюзных и международных джазовых фестивалей Михаил Суджян проводит свой очередной видеоурок, в котором Михаил затронул такие темы как:
- как правильно держать медиатор
- регулирование громкости звукоизвлечения
- основные аккорды
- ноты и паузы
- знаки альтерации
Урок предназначен для широкой публики и прежде всего для начинающих гитаристов.
Доп. информация: Преподаватель Государственного музыкального училища эстрадно-джазового искусства (ГМК ЭДИ).
Закончил Ереванскую Государственную консерваторию им. Комитаса по классу хоровое дирижирование, 1983г., диплом с отличием.
1977 - года работал в составах разных вокально-инструментальных ансамблей Ереванской филармонии, в том числе в известном ВИА , лауреате 5 Всесоюзного конкурса артистов эстрады "АРМИНА";
1979 - в Ашхабадском фольклорно - джазовом ансамбле "Фируза";
1981 - Армгостелерадио - эстрадно - симфонический оркестр Гостелерадио Армении в качестве солиста и сессионного музыканта
с 1981 - в Ереванском джазовом колледже преподаватель курса джазовой гитары
С 1992 по настоящее время работает преподавателем по классу электрогитары в Государственном музыкальном училище эстрадно - джазового искусства
Также является старшим преподавателем Нижегородской консерватории им. Глинки
Награды и звания
Лауреат шестого всесоюзного конкурса артистов эстрады в составе ВИА "ФИРУЗА";
1985 и 1987 гг. лауреат Всесоюзного джазового фестиваля в столице Армении - Ереване;
1986г. лауреат Тбилисского международного джазового фестиваля. В составе различных ансамблей выступал с концертами в более чем тридцати странах мира
Организатор и руководитель конкурса «Многоликая Гитара»
Качество: SATRip
Формат: MP4
Видео кодек: H.264
Аудио кодек: AAC
Видео: MPEG4 Video (H264) 1280x720 25.00fps
Аудио: AAC 48000Hz stereo 1536kbps
General
Format : MPEG-4
Format profile : Base Media / Version 2
Codec ID : mp42
File size : 667 MiB
Duration : 10mn 43s
Overall bit rate : 8 685 Kbps
©TIM : 00:11:11:10
©TSC : 25
©TSZ : 1
Video
ID : 1
Format : AVC
Format/Info : Advanced Video Codec
Format profile : Main@L4.2
Format settings, CABAC : Yes
Format settings, ReFrames : 3 frames
Format settings, GOP : M=4, N=33
Codec ID : avc1
Codec ID/Info : Advanced Video Coding
Duration : 10mn 43s
Bit rate mode : Variable
Bit rate : 8 524 Kbps
Width : 1 280 pixels
Height : 720 pixels
Display aspect ratio : 16:9
Frame rate mode : Constant
Frame rate : 25.000 fps
Standard : PAL
Color space : YUV
Chroma subsampling : 4:2:0
Bit depth : 8 bits
Scan type : Progressive
Bits/(Pixel*Frame) : 0.370
Stream size : 654 MiB (98%)
Audio
ID : 2
Format : AAC
Format/Info : Advanced Audio Codec
Format profile : LC
Codec ID : 40
Duration : 10mn 43s
Bit rate mode : Variable
Bit rate : 157 Kbps
Maximum bit rate : 253 Kbps
Channel(s) : 2 channels
Channel positions : Front: L R
Sampling rate : 48.0 KHz
Compression mode : Lossy
Stream size : 12.1 MiB (2%)
У вас нет необходимых прав для просмотра вложений в этом сообщении.