Михаил Лисов Пентатоника и блюзовая гармония - мастер класс Learnmusic, О2 тв [2009, Музыка, SATRip, RUS] (Видеоурок)

Гитара, бас гитара, балалайка, скрипка, виолончель и т.д.
Торрент Сидеров Личеров Размер
torrent_3881019.torrent
0 0 1.7 ГБ
Аватара пользователя
Stepan
Администратор
Сообщения: 52267
Зарегистрирован: 05 ноя 2011, 20:36

Михаил Лисов Пентатоника и блюзовая гармония - мастер класс Learnmusic, О2 тв [2009, Музыка, SATRip, RUS] (Видеоурок)

Сообщение Stepan » 22 мар 2018, 21:00

Михаил Лисов Пентатоника и блюзовая гармония - мастер класс Learnmusic, О2 тв
Страна: Россия
Тематика: Музыка
Тип раздаваемого материала: Видеоурок
Продолжительность: 01:16:31
Год выпуска: 2009
Язык: Русский
Перевод: Не требуется
Описание: На сцене в студии О2тв целая группа! Aerojazz показали мастер-класс по игре блюза сразу на трёх инструментах: на гитаре, бас-гитаре и ударных.
С чего может начаться разговор о блюзе? Первое что приходит в голову – конечно же, пентатоника! На самом деле пентатоника не придумывалась специально для блюза. Изначально она использовалась в военных оркестрах, очень распространена в азиатском фольклоре. Сейчас же она используется практически во всех стилях музыки. Пентатоническая гамма образуется путём ликвидации из обычной второй и шестой ступеней.
Ещё одна особенность блюза – это всем известный блюзовый квадрат. Его структура всегда одна и та же: 12 тактов по 4 доли. При том чаще всего ритм играется триолями с приглушённой второй нотой каждой триоли.
Конечно, не последнюю роль в блюзе играет сам инструмент, в частности гитара. В этом нелёгком деле Михаил советует доверять продавцу в музыкальном магазине.
Доп. информация: Михаил Лисов - выпускник Училища искусств (г. Пенза). Работал преподавателем по классу гитары. Участвовал в фестивале "Intelligent deep music" (2003 г., г. Москва). Принимал участие в записи альбома "Ornitology" (2004) группы "Aerojazz".
Качество: SATRip
Формат: MP4
Видео кодек: H.264
Аудио кодек: AAC
Видео: MPEG4 Video (H264) 720x576 (160:117) 25.00fps
Аудио: AAC 48000Hz stereo 1536kbps
General
Format : MPEG-4
Format profile : Base Media / Version 2
Codec ID : mp42
File size : 1.70 GiB
Duration : 1h 16mn
Overall bit rate : 3 188 Kbps
©TIM : 00:00:00:00
©TSC : 25
©TSZ : 1
Video
ID : 1
Format : AVC
Format/Info : Advanced Video Codec
Format profile : Main@L3.2
Format settings, CABAC : Yes
Format settings, ReFrames : 3 frames
Format settings, GOP : M=4, N=33
Codec ID : avc1
Codec ID/Info : Advanced Video Coding
Duration : 1h 16mn
Bit rate mode : Variable
Bit rate : 2 995 Kbps
Width : 720 pixels
Height : 576 pixels
Display aspect ratio : 4:3
Frame rate mode : Constant
Frame rate : 25.000 fps
Standard : PAL
Color space : YUV
Chroma subsampling : 4:2:0
Bit depth : 8 bits
Scan type : Progressive
Bits/(Pixel*Frame) : 0.289
Stream size : 1.60 GiB (94%)
Audio
ID : 2
Format : AAC
Format/Info : Advanced Audio Codec
Format profile : LC
Codec ID : 40
Duration : 1h 16mn
Bit rate mode : Variable
Bit rate : 192 Kbps
Maximum bit rate : 293 Kbps
Channel(s) : 2 channels
Channel positions : Front: L R
Sampling rate : 48.0 KHz
Compression mode : Lossy
Stream size : 104 MiB (6%)
У вас нет необходимых прав для просмотра вложений в этом сообщении.