Hal Leonard - Learn & Master Guitar: Rock Hits [2015, H.264, DVDRip, ENG] (Видеоурок)

Гитара, бас гитара, балалайка, скрипка, виолончель и т.д.
Торрент Сидеров Личеров Размер
torrent_5040011.torrent
0 0 12.58 ГБ
Аватара пользователя
Stepan
Администратор
Сообщения: 52388
Зарегистрирован: 05 ноя 2011, 20:36

Hal Leonard - Learn & Master Guitar: Rock Hits [2015, H.264, DVDRip, ENG] (Видеоурок)

Сообщение Stepan » 22 мар 2018, 21:00

Learn & Master Guitar: Rock Hits


Производитель: Hal Leonard
Тип раздаваемого материала: Видеоурок
Сайт производителя: www.learnandmaster.com/rockhits/
Автор: Stevie Ray Vaughan
Продолжительность: 19:53:07
Год выпуска: 2015
Язык: Английский
Перевод: Отсутствует
Описание: Наиболее полный набор SRV-основное внимание было уделено уроки. Вы узнаете о наших девчат вдохновленные его наиболее популярных песен. Каждый курс предлагает наших девчат на 3-х разных уровней квалификации.
The most comprehensive set of SRV-focused lessons ever made. You'll learn solos inspired by his most popular songs. Each course offers solos at 3 different skill levels:
  • Beginner - easy to get started with
    Intermediate - begin to add speed & technique
    Advanced - plenty of speed and intensity
    I teach every note of each solo, from beginner to advanced. You'll get tablature and backing tracks with each course. There is no better way to start learning Stevie's style of playing.

DVDS INFO:
DVD 1: All Along the Watchtower, American Woman, We are the Champions, Wild Thing | RunTime Volume 1 ISO: 1hr 56mins 49secs
DVD 2: Burnin' for you, Dust in the Wind, Proud Mary, School's Out | RunTime Volume 2 ISO: 1hr 57mins 05secs
DVD 3: La Grange, Rock n' Me, The House is Rockin', Jessica | RunTime Volume 3 ISO: 1hr 35mins 13secs
DVD 4: Are you gonna go my way, Come together, Highway star, No more Mr. Nice Guy | RunTime Volume 4 ISO: 1hr 39mins 28secs
DVD 5: Fool for the City, I Want You to Want Me, Knockin' on Heaven's Door, More Than a Feeling | RunTime Volume 5 ISO: 2hrs 19mins 28secs
DVD 6: Come as You Are, Feel Like Makin' Love, Iron Man, Ramblin' Man | RunTime Volume 6 ISO: 1hr 56mins 31secs
DVD 7: Realin' in the Years, Sharp Dressed Man, Slow Ride, Takin' Care of Business | RunTime Volume 7 ISO: 1hr 57mins 48secs
DVD 8: Been Away Too Long, Black Magic Woman, Hot Blooded, Pride and Joy | RunTime Volume 8 ISO: 1hr 58mins 36secs
DVD 9: Killer queen, Mississippi Queen, Smoke on the Water, Suzie Q | RunTime Volume 9 ISO: 2hrs 18mins 11secs
DVD 10: (Don't fear) the Reaper, Paranoid, Rock and Roll band, Sweet Home Alabama | RunTime Volume 10 ISO: 1hr 56mins 08secs
Songs:
School's Out
Iron Man
(Don't Fear) The Reaper
More Than A Feeling
Proud Mary
Smoke On The Water
Slow Ride
Hot Blooded
Knockin' On Heaven's Door
All Along The Watchtower
Come Together
Dust In The Wind
Are You Gonna Go My Way
Sweet Home Alabama
Come As You Are
We Are The Champions
Been Away Too Long
Reelin' In The Years
Pride And Joy
Jessica
Ramblin' Man
Wild Thing
La Grange
Sharp Dressed Man
I Want You To Want Me
plus 15 more...
Качество: DVDRip
Формат: MP4
Видео кодек: H.264
Аудио кодек: AAC
Видео: AVC, 720x404, 16:9, 24.000 fps, ~ 1194 Kbps
Аудио: AAC, 48.0 KHz, ~ 128.0 Kbps, 2 channels
General
Complete name : D:\_Guitrar video\Legacy Learning Systems - Learn & Master - Rock Hits - Hal Leonard\LM_ROCK_HITS_DISC_9\Queen - Killer Queen.mp4
Format : MPEG-4
Format profile : Base Media / Version 2
Codec ID : mp42
File size : 320 MiB
Duration : 33mn 9s
Overall bit rate mode : Variable
Overall bit rate : 1 348 Kbps
Movie name : LM_ROCK_HITS_DISC_9.Title4
Album : LM_ROCK_HITS_DISC_9
Encoded date : UTC 2015-07-09 17:02:04
Tagged date : UTC 2015-07-09 17:19:54
Writing application : DVDFab 9.2.0.2
covr : Unknown kind of value!
Video
ID : 1
Format : AVC
Format/Info : Advanced Video Codec
Format profile : Main@L3
Format settings, CABAC : Yes
Format settings, ReFrames : 1 frame
Format settings, GOP : M=1, N=24
Codec ID : avc1
Codec ID/Info : Advanced Video Coding
Duration : 33mn 9s
Bit rate : 1 194 Kbps
Width : 720 pixels
Height : 404 pixels
Display aspect ratio : 16:9
Frame rate mode : Constant
Frame rate : 23.976 fps
Color space : YUV
Chroma subsampling : 4:2:0
Bit depth : 8 bits
Scan type : Progressive
Bits/(Pixel*Frame) : 0.171
Stream size : 287 MiB (90%)
Writing library : x264 core 142
Color range : Limited
Color primaries : BT.601 NTSC
Transfer characteristics : BT.709
Matrix coefficients : BT.601
Audio
ID : 2
Format : AAC
Format/Info : Advanced Audio Codec
Format profile : LC
Codec ID : 40
Duration : 33mn 9s
Bit rate mode : Variable
Bit rate : 128 Kbps
Maximum bit rate : 132 Kbps
Channel(s) : 2 channels
Channel positions : Front: L R
Sampling rate : 48.0 KHz
Compression mode : Lossy
Stream size : 30.4 MiB (9%)
Title : aac 2.0
Encoded date : UTC 2015-07-09 17:02:04
Tagged date : UTC 2015-07-09 17:19:54
У вас нет необходимых прав для просмотра вложений в этом сообщении.