Hal Leonard - Guitar Play Along Volume 19 - Neil Young (2 DVD Set) [2013, Игра на гитаре, DVDRip, ENG] (Видеоурок)

Гитара, бас гитара, балалайка, скрипка, виолончель и т.д.
Торрент Сидеров Личеров Размер
torrent_5011969.torrent
0 0 4.01 ГБ
Аватара пользователя
Stepan
Администратор
Сообщения: 52267
Зарегистрирован: 05 ноя 2011, 20:36

Hal Leonard - Guitar Play Along Volume 19 - Neil Young (2 DVD Set) [2013, Игра на гитаре, DVDRip, ENG] (Видеоурок)

Сообщение Stepan » 22 мар 2018, 21:01

Hal Leonard - Guitar Play Along Volume 19 - Neil Young (2 DVD Set)
Страна: USA
Тематика: Игра на гитаре
Тип раздаваемого материала: Видеоурок
Продолжительность: 04:30:00
Год выпуска: 2013
Язык: Английский
Перевод: Отсутствует
Описание: The Guitar Play Along DVD series lets you hear and see how to play songs like never before. Just watch, listen and learn! Each song starts with a lesson from a professional guitar teacher. Then, the teacher performs the complete song along with professionally recorded backing tracks. You can choose to turn the guitar off if you want to play along or leave the guitar in the mix to hear how it should sound. You can also choose from multiple viewing options; fret hand with tab, wide view with tab, pick & fret hand close-up, and others.
Features 15 selections from Young's 2004 greatest hits album: Cinnamon Girl • Comes a Time • Cowgirl in the Sand • Down by the River • Harvest Moon • Heart of Gold • Helpless • Hey Hey, My My (Into the Black) • Like a Hurricane • The Needle and the Damage Done • Ohio • Old Man • Only Love Can Break Your Heart • Rockin' in the Free World • Southern Man.
Доп. информация: Вас научат играть вещи Нила Янга.
Качество: dvdrip
Формат: MPEG-4
Видео кодек: AVC
Аудио кодек: AAC
Видео: AVC at 3 120 Kbps; 856 x 480 (1.783) at 29.970 fps
Аудио: AAC at 128 Kbps; 2 channels, 44.1 KHz
General
Complete name : 01 - Down By The River\HLGPANY19 - 01 - Down by the River - Intro_Chords_Lesson.m4v
Format : MPEG-4
Format profile : Base Media / Version 2
Codec ID : mp42
File size : 83.9 MiB
Duration : 3mn 36s
Overall bit rate : 3 255 Kbps
Codirector : codirector
Production studio : studio
ContentType : Unknown Type
Encoded date : UTC 2015-05-07 21:56:08
Tagged date : UTC 2015-05-07 21:56:08
Video
ID : 1
Format : AVC
Format/Info : Advanced Video Codec
Format profile : Baseline@L3
Format settings, CABAC : No
Format settings, ReFrames : 1 frame
Format settings, GOP : M=1, N=25
Codec ID : avc1
Codec ID/Info : Advanced Video Coding
Duration : 3mn 36s
Bit rate : 3 120 Kbps
Width : 856 pixels
Height : 480 pixels
Display aspect ratio : 16:9
Frame rate mode : Constant
Frame rate : 29.970 fps
Original frame rate : 29.000 fps
Color space : YUV
Chroma subsampling : 4:2:0
Bit depth : 8 bits
Scan type : Progressive
Bits/(Pixel*Frame) : 0.253
Stream size : 80.4 MiB (96%)
Writing library : P!Ґ Z^`ђ
Language : English
Audio
ID : 2
Format : AAC
Format/Info : Advanced Audio Codec
Format profile : LC
Codec ID : 40
Duration : 3mn 36s
Bit rate mode : Constant
Bit rate : 128 Kbps
Channel(s) : 2 channels
Channel positions : Front: L R
Sampling rate : 44.1 KHz
Compression mode : Lossy
Stream size : 3.30 MiB (4%)
Title : Stereo
Language : English


У вас нет необходимых прав для просмотра вложений в этом сообщении.