Роман Конограй - Гитара с нуля. Уроки игры на гитаре [2015, Уроки игры на гитаре, WEBRip, RUS] (Видеоурок)

Гитара, бас гитара, балалайка, скрипка, виолончель и т.д.
Торрент Сидеров Личеров Размер
torrent_5449540.torrent
0 0 990.4 МБ
Аватара пользователя
Stepan
Администратор
Сообщения: 52267
Зарегистрирован: 05 ноя 2011, 20:36

Роман Конограй - Гитара с нуля. Уроки игры на гитаре [2015, Уроки игры на гитаре, WEBRip, RUS] (Видеоурок)

Сообщение Stepan » 22 мар 2018, 21:14

Роман Конограй | "Гитара с нуля". Уроки игры на гитаре (2015) WEBRip [H.264/720p-LQ]
Страна: Россия
Тематика: Уроки игры на гитаре
Тип раздаваемого материала: Видеоуроки
Продолжительность: 01:56:34
Год выпуска: 2015
Язык: Русский
Перевод: Не требуется
Описание: Все уроки на очень доступном языке, без заморочек и построены таким образом, что бы вы с нуля, постепенно, занятие за занятием, постигали новые вершины мастерства. Каждый последующий урок выходит из предыдущего, что в конце концов, новичка который никогда не брал в руки гитару доведет до профессионала.
Общий список:
0 Как настроить гитару (Урок 0) по тюнеру, на слух- разными способами
1 Гитара с нуля- (урок1) ритмический рисунок(бой №1) и первые аккорды Звезда по имени солнце.
2 Уроки игры на гитаре для начинающих (урок2)учимся ставить аккорды на примере Пачка сигарет
3 Обучение игре на гитаре (урок3)как быстро переставлять аккорды использовать разные бои- нам с тобой (1)
4 Уроки гитары (урок4) для начинающих переставляем аккорды, учим бой Просвистела и Что такое осень
5 Школа игры на гитаре- Ритм на 3-4 и первый перебор (урок 5) Прогулки по воде, в гостях Влад Канопка
6 Учимся играть на гитаре бой с перебором (урок 6) на примере ДДТ-Метель
7 Видеоуроки игры на гитаре (урок 7) бой с перебором на примере Мое сердце и Лирика
8 Как брать баррэ, учимся быстро ставить баре на гитаре легко (урок 8) уроки игры для начинающих.
Качество: WEBRip
Формат: MP4
Видео кодек: H.264
Аудио кодек: AAC
Видео: MPEG4 Video (H264) 1280x720 25.00fps
Аудио: AAC 44100Hz stereo
Общее
Формат : MPEG-4
Профиль формата : Base Media / Version 2
Идентификатор кодека : mp42 (isom/mp42)
Размер файла : 93,9 Мбайт
Продолжительность : 11 м. 3 с.
Режим общего битрейта : Переменный
Общий поток : 1188 Кбит/сек
Дата кодирования : UTC 2016-08-25 11:26:50
Дата пометки : UTC 2016-08-25 11:26:50
gsst : 0
gstd : 663254
Видео
Идентификатор : 1
Формат : AVC
Формат/Информация : Advanced Video Codec
Профиль формата : Main@L3.1
Параметр CABAC формата : Да
Параметр RefFrames формата : 3 кадра
Идентификатор кодека : avc1
Идентификатор кодека/Информация : Advanced Video Coding
Продолжительность : 11 м. 3 с.
Битрейт : 1058 Кбит/сек
Ширина : 1280 пикселей
Высота : 720 пикселей
Соотношение сторон : 16:9
Режим частоты кадров : Постоянный
Частота кадров : 25,000 кадров/сек
Цветовое пространство : YUV
Субдискретизация насыщенности : 4:2:0
Битовая глубина : 8 бит
Тип развёртки : Прогрессивная
Бит/(Пиксели*Кадры) : 0.046
Размер потока : 83,7 Мбайт (89%)
Заголовок : ISO Media file produced by Google Inc.
Дата кодирования : UTC 2016-08-25 11:26:50
Дата пометки : UTC 2016-08-25 11:26:50
Аудио
Идентификатор : 2
Формат : AAC
Формат/Информация : Advanced Audio Codec
Профиль формата : LC
Идентификатор кодека : 40
Продолжительность : 11 м. 3 с.
Вид битрейта : Переменный
Битрейт : 126 Кбит/сек
Каналы : 2 канала
Расположение каналов : Front: L R
Частота : 44,1 КГц
Частота кадров : 43,066 кадра/сек (1024 SPF)
Метод сжатия : С потерями
Размер потока : 9,93 Мбайт (11%)
Заголовок : ISO Media file produced by Google Inc.
Дата кодирования : UTC 2016-08-25 11:26:50
Дата пометки : UTC 2016-08-25 11:26:50
У вас нет необходимых прав для просмотра вложений в этом сообщении.