Американская колония Знакомство с гуттеритами / American colony Meet the hutterites / Скандал на празднике урожая [2013,

Научно-популярные фильмы Национального географического общества
Торрент Сидеров Личеров Размер
torrent_4341265.torrent
0 0 584.37 МБ
Аватара пользователя
Солнышко
Сообщения: 22944
Зарегистрирован: 13 янв 2016, 22:10

Американская колония Знакомство с гуттеритами / American colony Meet the hutterites / Скандал на празднике урожая [2013,

Сообщение Солнышко » 22 мар 2018, 21:39

Американская колония Знакомство с гуттеритами / American colony Meet the hutterites / Скандал на празднике урожая
Год выпуска: 2013
Страна: США
Жанр: Документальный
Продолжительность: 00:44:00
Перевод: Любительский (двухголосый закадровый)
Русские субтитры: нет
Описание: Гуттериты разочарованы из-за того, что их коровы не набрали нужный вес, а Клаудиа хочет встретиться с парнем, не одобренным общиной.

качество: SATRip
формат: AVI
видеокодек: XviD
аудиокодек: MP3
Видео: XviD, 704x384, 1787 kb/s, 25 fps
Аудио: MP3, 2 ch, 256 kb/s, 48 kHz
Полное имя : D:\Видео\Документальные\Американская колония Знакомство с гуттеритами\Американская колония Знакомство с гуттеритами Скандал на празднике урожая.avi
Формат : AVI
Формат/Информация : Audio Video Interleave
Размер файла : 584 Мбайт
Продолжительность : 44 м.
Общий поток : 1821 Кбит/сек
Видео
Идентификатор : 0
Формат : MPEG-4 Visual
Профиль формата : Advanced Simple@L4
Параметр BVOP формата : Нет
Параметр QPel формата : Нет
Параметр GMC формата : Без точки перехода
Параметр матрицы формата : Default (H.263)
Идентификатор кодека : XVID
Идентификатор кодека/Подсказка : XviD
Продолжительность : 44 м.
Битрейт : 1552 Кбит/сек
Ширина : 704 пикселя
Высота : 384 пикселя
Соотношение сторон : 1,85:1
Частота кадров : 25,000 кадров/сек
Цветовое пространство : YUV
Субдискретизация насыщенности : 4:2:0
Битовая глубина : 8 бит
Тип развёртки : Прогрессивная
Метод сжатия : С потерями
Бит/(Пиксели*Кадры) : 0.230
Размер потока : 498 Мбайт (85%)
Аудио
Идентификатор : 1
Формат : MPEG Audio
Версия формата : Version 1
Профиль формата : Layer 3
Идентификатор кодека : 55
Идентификатор кодека/Подсказка : MP3
Продолжительность : 44 м.
Вид битрейта : Постоянный
Битрейт : 256 Кбит/сек
Каналы : 2 канала
Частота : 48,0 КГц
Метод сжатия : С потерями
Размер потока : 82,1 Мбайт (14%)
Выравнивание : Разделение по промежуткам
Продолжительность промежутка : 24 мс. (0,60 видеокадр)
Библиотека кодирования : LAME3.98.2UUU
У вас нет необходимых прав для просмотра вложений в этом сообщении.