Наука рукопашного боя. Самооборона / Fight Science. Human Weapon (Николас Бухриф) [2010, Научно-популярный, документальн

Научно-популярные фильмы Национального географического общества
Торрент Сидеров Личеров Размер
torrent_4374275.torrent
0 0 700.37 МБ
Аватара пользователя
Солнышко
Сообщения: 22944
Зарегистрирован: 13 янв 2016, 22:10

Наука рукопашного боя. Самооборона / Fight Science. Human Weapon (Николас Бухриф) [2010, Научно-популярный, документальн

Сообщение Солнышко » 22 мар 2018, 21:40

Наука рукопашного боя. Самооборона / Fight Science. Human Weapon
Год выпуска: 2010
Страна: США
Жанр: Научно-популярный, документальный
Продолжительность: 00:47:00
Перевод: Одноголосый закадровый
Русские субтитры: нет
Режиссер: Николас Бухриф
В ролях: Андре Дюссолье, Марта Келлер, Жюльен Бойсселье, Шанталь Нойвирт, Клер Небу, Клод Перрон, Лаура Салама, Паскаль Элбе, Орор Клеман, Жилль Гастон-Дрейфус
Описание: Эксперты, спортивные физиологи и инженеры-биомеханики исследуют способности мастеров боевых искусств, подвергая их экстремальным испытаниям...
качество: SATRip
формат: AVI
видеокодек: XviD
аудиокодек: MP3
Видео: 720x416 (1.73:1), 25 fps, XviD build 55 ~1831 kbps avg, 0.24 bit/pixel
Audio #1: 48 kHz, MPEG Layer 3, 2 ch, ~128.00 kbps avg Русский
Audio #2: 48 kHz, MPEG Layer 3, 2 ch, ~128.00 kbps avg Английский
General
Complete name : C:\Documents and Settings\Mersicc\Мои документы\Мои видеозаписи\Nauka rukopashnogo boia.avi
Format : AVI
Format/Info : Audio Video Interleave
File size : 700 MiB
Duration : 46mn 33s
Overall bit rate : 2 103 Kbps
Writing application : VirtualDubMod 1.5.10.2 (build 2542/release)
Writing library : VirtualDubMod build 2542/release
Video
ID : 0
Format : MPEG-4 Visual
Format profile : Advanced Simple@L5
Format settings, BVOP : 1
Format settings, QPel : No
Format settings, GMC : No warppoints
Format settings, Matrix : Custom
Codec ID : XVID
Codec ID/Hint : XviD
Duration : 46mn 33s
Bit rate : 1 832 Kbps
Width : 720 pixels
Height : 416 pixels
Display aspect ratio : 1.731
Frame rate : 25.000 fps
Color space : YUV
Chroma subsampling : 4:2:0
Bit depth : 8 bits
Scan type : Progressive
Compression mode : Lossy
Bits/(Pixel*Frame) : 0.245
Stream size : 610 MiB (87%)
Writing library : XviD 1.3.0.dev55
Audio #1
ID : 1
Format : MPEG Audio
Format version : Version 1
Format profile : Layer 3
Mode : Joint stereo
Mode extension : MS Stereo
Codec ID : 55
Codec ID/Hint : MP3
Duration : 46mn 33s
Bit rate mode : Constant
Bit rate : 128 Kbps
Channel(s) : 2 channels
Sampling rate : 48.0 KHz
Compression mode : Lossy
Stream size : 42.6 MiB (6%)
Alignment : Aligned on interleaves
Interleave, duration : 40 ms (1.00 video frame)
Interleave, preload duration : 504 ms
Writing library : LAMEЄЄ
Audio #2
ID : 2
Format : MPEG Audio
Format version : Version 1
Format profile : Layer 3
Mode : Joint stereo
Codec ID : 55
Codec ID/Hint : MP3
Duration : 46mn 33s
Bit rate mode : Constant
Bit rate : 128 Kbps
Channel(s) : 2 channels
Sampling rate : 48.0 KHz
Compression mode : Lossy
Stream size : 42.6 MiB (6%)
Alignment : Aligned on interleaves
Interleave, duration : 40 ms (1.00 video frame)
Interleave, preload duration : 504 ms
Writing library : LAME3.98.2UUUUUUUU@i

У вас нет необходимых прав для просмотра вложений в этом сообщении.