Напряжение. Удар молнией / Human Voltage: Struck by Lightning [2007, Документальный, исследование, научно-познавательный

Научно-популярные фильмы Национального географического общества
Торрент Сидеров Личеров Размер
torrent_4383522.torrent
0 0 576.41 МБ
Аватара пользователя
Солнышко
Сообщения: 22944
Зарегистрирован: 13 янв 2016, 22:10

Напряжение. Удар молнией / Human Voltage: Struck by Lightning [2007, Документальный, исследование, научно-познавательный

Сообщение Солнышко » 22 мар 2018, 21:42

Напряжение. Удар молнией / Human Voltage: Struck by Lightning
Год выпуска: 2007
Страна: США
Жанр: Документальный, исследование, научно-познавательный, природа
Продолжительность: 00:49:15
Перевод: Одноголосый закадровый
Русские субтитры: нет
Производство: National Geographic
Описание: Природа в ее самой взрывной ипостаси. Электричество становится смертельно опасным. Оно может лишить жизни за одну миллисекунду. Оно бьет без предупреждения, а электрический удар обладает разрушительной силой для человеческого тела. Оно может изменить связи в мозге. Ученые устремляются к самому центру бури, чтобы измерить грозную силу. Врачи осмотрят человеческий мозг, чтобы выяснить, что происходит после удара молнией...

качество: SATRip
формат: AVI
видеокодек: XviD
аудиокодек: MP3
Видео: MPEG-4 Visual, XviD, 704 х 464 (4:3), 25,000 кадров/сек, 1498 Кбит/сек, 0.183 бит/пиксель
Аудио: MP3, 48,0 КГц, 128 Кбит/сек, 2 канала
Автор рипа bobbybrown релиз-группа
Общее
Полное имя : E:\torrent\Напряжение. Удар молнией.avi
Формат : AVI
Формат/Информация : Audio Video Interleave
Размер файла : 576 Мбайт
Продолжительность : 49 м.
Общий поток : 1636 Кбит/сек
Библиотека кодирования : VirtualDub build 35390/release
Видео
Идентификатор : 0
Формат : MPEG-4 Visual
Профиль формата : Advanced Simple@L5
Параметр BVOP формата : 2
Параметр QPel формата : Нет
Параметр GMC формата : Без точки перехода
Параметр матрицы формата : Default (H.263)
Режим смешивания : Сжатый битовый поток
Идентификатор кодека : XVID
Идентификатор кодека/Подсказка : XviD
Продолжительность : 49 м.
Битрейт : 1498 Кбит/сек
Ширина : 704 пикселя
Высота : 464 пикселя
Соотношение сторон : 3:2
Частота кадров : 25,000 кадров/сек
Цветовое пространство : YUV
Субдискретизация насыщенности : 4:2:0
Битовая глубина : 8 бит
Тип развёртки : Прогрессивная
Метод сжатия : С потерями
Бит/(Пиксели*Кадры) : 0.183
Размер потока : 528 Мбайт (92%)
Библиотека кодирования : XviD 1.2.1 (UTC 2008-12-04)
Аудио
Идентификатор : 1
Формат : MPEG Audio
Версия формата : Version 1
Профиль формата : Layer 3
Режим : Joint stereo
Расширение режима : MS Stereo
Идентификатор кодека : 55
Идентификатор кодека/Подсказка : MP3
Продолжительность : 49 м.
Вид битрейта : Постоянный
Битрейт : 128 Кбит/сек
Каналы : 2 канала
Частота : 48,0 КГц
Метод сжатия : С потерями
Размер потока : 45,1 Мбайт (8%)
Выравнивание : Разделение по промежуткам
Продолжительность промежутка : 40 мс. (1,00 видеокадр)
Время предзагрузки промежутка : 500 мс.
У вас нет необходимых прав для просмотра вложений в этом сообщении.