Мегазаводы: суперавтомобили: "Nissan GT-R" / Megafactories [2012, Документальный, SATRip]

Научно-популярные фильмы Национального географического общества
Торрент Сидеров Личеров Размер
torrent_4265049.torrent
0 0 533.39 МБ
Аватара пользователя
Солнышко
Сообщения: 22944
Зарегистрирован: 13 янв 2016, 22:10

Мегазаводы: суперавтомобили: "Nissan GT-R" / Megafactories [2012, Документальный, SATRip]

Сообщение Солнышко » 22 мар 2018, 21:43

Мегазаводы: суперавтомобили: "Nissan GT-R" / Megafactories
Год выпуска: 2012
Страна: США, National Geographic Channels
Жанр: Документальный
Продолжительность: 00:44:12
Перевод: Профессиональный (одноголосый)
Субтитры: Нет
Описание: На заводе фирмы "Nissan" современная аэродинамика, передовые технологии и двигатель "V6" ручной сборки позволяют создавать массовый суперкар.
Качество: SATRip
Формат: AVI
Видео кодек: XviD
Аудио кодек: MP3
Видео: 704x400 (1.76:1), 25 fps, XviD build 65 ~1520 kbps avg
Аудио: MP3, 128 Кбит/сек, 2 канала, 48,0 КГц
[url=http:// СПАМ

Код: Выделить всё

Общее
Полное имя                       : E:\Downloads\Megazavody.Superavtomobili.Nissan.GT-R.2012.SATRip.avi
Формат                           : AVI
Формат/Информация                : Audio Video Interleave
Размер файла                     : 533 Мбайт
Продолжительность                : 44 м.
Общий поток                      : 1657 Кбит/сек
Программа кодирования            : VirtualDubMod 1.5.10.3 | www.virtualdub-fr.org || (build 2550/release)
Библиотека кодирования           : VirtualDubMod build 2550/release
Видео
Идентификатор                    : 0
Формат                           : MPEG-4 Visual
Профиль формата                  : Advanced Simple@L5
Параметр BVOP формата            : 2
Параметр QPel формата            : Нет
Параметр GMC формата             : Без точки перехода
Параметр матрицы формата         : Default (MPEG)
Идентификатор кодека             : XVID
Идентификатор кодека/Подсказка   : XviD
Продолжительность                : 44 м.
Битрейт                          : 1520 Кбит/сек
Ширина                           : 704 пикс.
Высота                           : 400 пикс.
Соотношение сторон               : 16:9
Частота кадров                   : 25,000 кадр/сек
Цветовое пространство            : YUV
Подвыборка цветности             : 4:2:0
Битовая глубина                  : 8 бит
Тип развёртки                    : Прогрессивная
Метод сжатия                     : С потерями
Бит/(Пиксели*Кадры)              : 0.216
Размер потока                    : 489 Мбайт (92%)
Библиотека кодирования           : XviD 65
Аудио
Идентификатор                    : 1
Формат                           : MPEG Audio
Версия формата                   : Version 1
Профиль формата                  : Layer 3
Режим                            : Joint stereo
Идентификатор кодека             : 55
Идентификатор кодека/Подсказка   : MP3
Продолжительность                : 44 м.
Вид битрейта                     : Постоянный
Битрейт                          : 128 Кбит/сек
Каналы                           : 2 канала
Частота                          : 48,0 КГц
Метод сжатия                     : С потерями
Размер потока                    : 41,2 Мбайт (8%)
Выравнивание                     : Соединение по промежуткам
Продолжительность промежутка     : 40  мс. (1,00 видеокадр)
Время предзагрузки промежутка    : 504 ms
Релиз: РиперАм
У вас нет необходимых прав для просмотра вложений в этом сообщении.