Взгляд изнутри: Сумо. Главный поединок / Inside: Sumo's Ultimate Clash (Петер Йост / Peter Yost) [2007, Документальный,

Научно-популярные фильмы Национального географического общества
Торрент Сидеров Личеров Размер
torrent_3975206.torrent
0 0 698.88 МБ
Аватара пользователя
Солнышко
Сообщения: 22944
Зарегистрирован: 13 янв 2016, 22:10

Взгляд изнутри: Сумо. Главный поединок / Inside: Sumo's Ultimate Clash (Петер Йост / Peter Yost) [2007, Документальный,

Сообщение Солнышко » 22 мар 2018, 21:44

Взгляд изнутри: Сумо. Главный поединок / Inside: Sumo's Ultimate Clash
Год выпуска: 2007
Страна: США / Pangloss Films productions for National Geographic Television
Жанр: Документальный
Продолжительность: 00:46:54
Перевод: Профессиональный (полное дублирование)
Русские субтитры: нет
Режиссер: Петер Йост / Peter Yost
Описание: Сумо - национальный спорт традиционной Японии. Однако растущая популярность этого вида борьбы расширяет границы, привлекая новых борцов со всего мира: от пришедших в японское профессиональное сумо представителей Монголии до борцов-любителей из Северной Америки... Взгляд изнутри отправляется в мир сумо, чтобы увидеть вид спорта, который не похож на остальные.
Доп. информация: Релиз группы
Сведение дорожек и автор постера- nyctalus
Релиз подготовлен по просьбе и при участии Kraz с форума сайта ,
за что мы ему очень благодарны.
Качество: HDRip (Источник )
Формат: AVI
Видео кодек: XviD
Аудио кодек: AC3
Видео: XviD, 1557 Кбит/с, 704x400, 25.000 fps
Аудио #1: Русский (AC3, 2 ch, 128 Кбит/с, 48 kHz)
Аудио #2: English (AC3, 6 ch, 384 Кбит/с, 48 kHz)
Complete name : Vzglad.iznutri.Cymo.Glavnyj.poedinok.2007.XviD.HDRip_DaVinci.avi
Format : AVI
Format/Info : Audio Video Interleave
File size : 699 MiB
Duration : 46mn 54s
Overall bit rate : 2 083 Kbps
Writing application : VirtualDubMod 1.5.10.2 (build 2540/release)
Writing library : VirtualDubMod build 2540/release
Video
ID : 0
Format : MPEG-4 Visual
Format profile : Advanced Simple@L5
Format settings, BVOP : 1
Format settings, QPel : No
Format settings, GMC : No warppoints
Format settings, Matrix : Custom
Muxing mode : Packed bitstream
Codec ID : XVID
Codec ID/Hint : XviD
Duration : 46mn 54s
Bit rate : 1 557 Kbps
Width : 704 pixels
Height : 400 pixels
Display aspect ratio : 16:9
Frame rate : 25.000 fps
Color space : YUV
Chroma subsampling : 4:2:0
Bit depth : 8 bits
Scan type : Progressive
Compression mode : Lossy
Bits/(Pixel*Frame) : 0.221
Stream size : 522 MiB (75%)
Writing library : XviD 1.2.1 (UTC 2008-12-04)
Audio #1
ID : 1
Format : AC-3
Format/Info : Audio Coding 3
Mode extension : CM (complete main)
Codec ID : 2000
Duration : 46mn 54s
Bit rate mode : Constant
Bit rate : 128 Kbps
Channel(s) : 2 channels
Channel positions : Front: L R
Sampling rate : 48.0 KHz
Bit depth : 16 bits
Compression mode : Lossy
Stream size : 42.9 MiB (6%)
Alignment : Split accross interleaves
Interleave, duration : 40 ms (1.00 video frame)
Interleave, preload duration : 500 ms
Audio #2
ID : 2
Format : AC-3
Format/Info : Audio Coding 3
Mode extension : CM (complete main)
Codec ID : 2000
Duration : 46mn 54s
Bit rate mode : Constant
Bit rate : 384 Kbps
Channel(s) : 6 channels
Channel positions : Front: L C R, Side: L R, LFE
Sampling rate : 48.0 KHz
Bit depth : 16 bits
Compression mode : Lossy
Stream size : 129 MiB (18%)
Alignment : Split accross interleaves
Interleave, duration : 40 ms (1.00 video frame)
Interleave, preload duration : 500 ms
Сравнение с файлом из
http://screenshotcomparison.com/compari ... /picture:0
Если Аметист захочет заменить SATRip на этот файл и поглотить тем самым раздачу - нет проблем...)))
У вас нет необходимых прав для просмотра вложений в этом сообщении.