National Geographic. Комета века / Comet of the century ( Дункан Копп / Duncan copp) [2013, документальный, HDTVRip]

Научно-популярные фильмы Национального географического общества
Торрент Сидеров Личеров Размер
torrent_4599540.torrent
0 0 492.9 МБ
Аватара пользователя
Солнышко
Сообщения: 22944
Зарегистрирован: 13 янв 2016, 22:10

National Geographic. Комета века / Comet of the century ( Дункан Копп / Duncan copp) [2013, документальный, HDTVRip]

Сообщение Солнышко » 22 мар 2018, 21:45

Комета века / Comet of the century
Год выпуска: 2013
Страна: США, National Geographic
Жанр: Документальный
Продолжительность: 00:43:55
Перевод: Профессиональный (одноголосый) студия АРК ТВ
Русские субтитры: нет
Режиссер: Дункан Копп / Duncan copp
Описание: Прямо сейчас в сторону солнца летит глыба изо льда и камня, размером с город. Это комета "Айсон". Астрономы по всему миру следят за ней. Она становится все ярче. Декабрь решит все.
качество: HDTVRip
формат: AVI
Видео:720x400p (16:9); 25.000 fps;1170 kbps
Аудио: Русский, AC3, 48 kHz, 2 ch, 192 Кбит/с
Аудио: Английский AC3, 48 kHz, 2 ch, 192 Кбит/с

Релиз, и работа со звуком
Format : AVI
Format/Info : Audio Video Interleave
File size : 493 MiB
Duration : 43mn 55s
Overall bit rate : 1 569 Kbps
Writing application : VirtualDubModRus 1.5.10.2 (build 2542/release)
Writing library : VirtualDubMod build 2542/release
Video
ID : 0
Format : MPEG-4 Visual
Format profile : Advanced Simple@L5
Format settings, BVOP : 2
Format settings, QPel : No
Format settings, GMC : No warppoints
Format settings, Matrix : Default (H.263)
Codec ID : XVID
Codec ID/Hint : XviD
Duration : 43mn 55s
Bit rate : 1 170 Kbps
Width : 720 pixels
Height : 400 pixels
Display aspect ratio : 16:9
Frame rate : 25.000 fps
Color space : YUV
Chroma subsampling : 4:2:0
Bit depth : 8 bits
Scan type : Progressive
Compression mode : Lossy
Bits/(Pixel*Frame) : 0.163
Stream size : 368 MiB (75%)
Writing library : XviD 1.2.1 (UTC 2008-12-04)
Audio #1
ID : 1
Format : AC-3
Format/Info : Audio Coding 3
Mode extension : CM (complete main)
Format settings, Endianness : Big
Codec ID : 2000
Duration : 43mn 55s
Bit rate mode : Constant
Bit rate : 192 Kbps
Channel count : 2 channels
Channel positions : Front: L R
Sampling rate : 48.0 KHz
Bit depth : 16 bits
Compression mode : Lossy
Stream size : 60.3 MiB (12%)
Alignment : Split accross interleaves
Interleave, duration : 40 ms (1.00 video frame)
Interleave, preload duration : 500 ms
Audio #2
ID : 2
Format : AC-3
Format/Info : Audio Coding 3
Mode extension : CM (complete main)
Format settings, Endianness : Big
Codec ID : 2000
Duration : 43mn 55s
Bit rate mode : Constant
Bit rate : 192 Kbps
Channel count : 2 channels
Channel positions : Front: L R
Sampling rate : 48.0 KHz
Bit depth : 16 bits
Compression mode : Lossy
Stream size : 60.3 MiB (12%)
Alignment : Split accross interleaves
Interleave, duration : 40 ms (1.00 video frame)
Interleave, preload duration : 500 ms
Если вы скачали данный релиз и хотите выложить его на другом ресурсе -
пожалуйста, указывайте первоисточник
dysonegear
У вас нет необходимых прав для просмотра вложений в этом сообщении.