Машины: разобрать и продать (8 из 8 Эпизодов) / Strippers Cars for Cash [2012, Документальный, HDTVRip, 720p]

Научно-популярные фильмы Национального географического общества
Торрент Сидеров Личеров Размер
torrent_4351983.torrent
0 3 7.62 ГБ
Аватара пользователя
Солнышко
Сообщения: 22944
Зарегистрирован: 13 янв 2016, 22:10

Машины: разобрать и продать (8 из 8 Эпизодов) / Strippers Cars for Cash [2012, Документальный, HDTVRip, 720p]

Сообщение Солнышко » 22 мар 2018, 21:46

Машины: разобрать и продать (8 из 8 Эпизодов) / Strippers Cars for Cash
Год выпуска: 2012
Страна: UK
Жанр: Документальный
Продолжительность: ~45 мин
Перевод: Одноголосый закадровый
Русские субтитры: нет
Описание: Можно ли заработать деньги на машине, которая сдана в лом? Об этом мы скоро узнаем в этом удивительном соревновании по разборке машин. Две команды опытных авторазборщиков прочешут страну в поисках старых машин, с которых они поснимают все детали и продадут тому, кто предложит больше. Деньги потекут рекой. И полетят фонтаны искр. Пусть начнется битва в новом реалити-шоу от канала National Geographic Cannel «Машины: Разобрать и продать»!
Доп. информация: Видео от Knifesharp, работа со звуком BL (БэстЛайв)
Качество: HDTVRip
Формат: MKV
Видео кодек: H.264
Аудио кодек: AC3
Видео: H.264; 1280x720p (16:9); 25.000 fps; ~2 500 kbps
Аудио 1: RUS AC3; 48000 Hz; 2 ch; 192 kbps
Аудио 2: ENG AC3; 48000 Hz; 6 ch; 384 kbps
Список серий:
Здесь
Complete name : I:\Сериалы\Strippers Cars for Cash\Strippers.Cars.for.Cash.s01e01.720p.HDTV.Rus.Eng_BL.mkv
Format : Matroska
File size : 992 MiB
Duration : 44mn 58s
Overall bit rate : 3 083 Kbps
Encoded date : UTC 2013-02-03 14:42:33
Writing application : mkvmerge v4.9.1 ('Ich will') сборка от Jul 11 2011 23:53:15
Writing library : libebml v1.2.1 + libmatroska v1.1.1
Video
ID : 1
Format : AVC
Format/Info : Advanced Video Codec
Format profile : High@L4.1
Format settings, CABAC : Yes
Format settings, ReFrames : 5 frames
Codec ID : V_MPEG4/ISO/AVC
Duration : 44mn 58s
Bit rate : 2 446 Kbps
Width : 1 280 pixels
Height : 720 pixels
Display aspect ratio : 16:9
Frame rate : 25.000 fps
Color space : YUV
Chroma subsampling : 4:2:0
Bit depth : 8 bits
Scan type : Progressive
Bits/(Pixel*Frame) : 0.106
Stream size : 787 MiB (79%)
Writing library : x264 core 128 r2216 198a7ea
Encoding settings : cabac=1 / ref=5 / deblock=1:0:0 / analyse=0x3:0x113 / me=umh / subme=8 / psy=1 / psy_rd=1.00:0.00 / mixed_ref=1 / me_range=16 / chroma_me=1 / trellis=1 / 8x8dct=1 / cqm=0 / deadzone=21,11 / fast_pskip=1 / chroma_qp_offset=-2 / threads=12 / lookahead_threads=2 / sliced_threads=0 / nr=0 / decimate=1 / interlaced=0 / bluray_compat=0 / constrained_intra=0 / bframes=3 / b_pyramid=2 / b_adapt=2 / b_bias=0 / direct=3 / weightb=1 / open_gop=0 / weightp=2 / keyint=250 / keyint_min=25 / scenecut=40 / intra_refresh=0 / rc_lookahead=50 / rc=crf / mbtree=1 / crf=21.0 / qcomp=0.60 / qpmin=0 / qpmax=69 / qpstep=4 / ip_ratio=1.40 / aq=1:1.00
Audio #1
ID : 2
Format : AC-3
Format/Info : Audio Coding 3
Mode extension : CM (complete main)
Codec ID : A_AC3
Duration : 44mn 58s
Bit rate mode : Constant
Bit rate : 192 Kbps
Channel(s) : 2 channels
Channel positions : Front: L R
Sampling rate : 48.0 KHz
Bit depth : 16 bits
Compression mode : Lossy
Stream size : 61.8 MiB (6%)
Language : Russian
Audio #2
ID : 3
Format : AC-3
Format/Info : Audio Coding 3
Mode extension : CM (complete main)
Codec ID : A_AC3
Duration : 44mn 58s
Bit rate mode : Constant
Bit rate : 384 Kbps
Channel(s) : 6 channels
Channel positions : Front: L C R, Side: L R, LFE
Sampling rate : 48.0 KHz
Bit depth : 16 bits
Compression mode : Lossy
Stream size : 124 MiB (12%)
Language : English
У вас нет необходимых прав для просмотра вложений в этом сообщении.