Будни криминалистов / Mystery Manhunt (Вэйн Деррик, Давид Ли, Ник О`Милли, Давид Холройд) [2011, Документальный, криминалистика, исследование, SATRip] (сезон 1 (1-8 серий из 8)) National Geographic

Научно-популярные фильмы Национального географического общества
Торрент Сидеров Личеров Размер
torrent_4418315.torrent
0 0 5.47 ГБ
Аватара пользователя
Солнышко
Сообщения: 22944
Зарегистрирован: 13 янв 2016, 22:10

Будни криминалистов / Mystery Manhunt (Вэйн Деррик, Давид Ли, Ник О`Милли, Давид Холройд) [2011, Документальный, криминалистика, исследование, SATRip] (сезон 1 (1-8 серий из 8)) National Geographic

Сообщение Солнышко » 22 мар 2018, 21:46

Будни криминалистов / Mystery Manhunt
Год выпуска: 2011
Страна: США
Производство: Wide-Eyed Entertaiment Ltd., National Geographic Television
Жанр: Документальный, криминалистика, исследование
Продолжительность: 8 x ~ 00:44:59
Перевод: Многоголосый закадровый
Доп. инфо о переводе: студия АРК-ТВ
Русские субтитры: нет
Режиссер: Вэйн Деррик, Давид Ли, Ник О`Милли, Давид Холройд
Описание: Мы видели это в фильмах и телепередачах. Эксперты-криминалисты, которые могут вычислить любого где угодно и когда угодно. Но в жизни дело обстоит куда сложнее. В этой программе всё будет еще труднее. В ходе этого расследования мы не будем использовать никакие привычные методы опознания, в том числе и стоматологические данные, базы ДНК, а также любые формы личного опознания. Используя лишь методы судебной экспертизы, изучения одежды, волос, кожи и внутренних органов. Сможет ли команда экспертов безошибочно определить род деятельности незнакомца? Его место жительства? И полное имя? Звучит невыполнимо? Давайте выясним!..
[url=http:// СПАМ [/url]
качество: SATRip
формат: AVI
видеокодек: XviD
аудиокодек: MP3
Видео: MPEG-4 Visual, XviD, 720 х 400 (16:9), 25,000 кадров/сек, 1772 Кбит/сек, 0.246 бит/пиксель
Аудио: Русский, MP3, 48,0 КГц, 192 Кбит/сек, 2 канала
Аудио 2: Английский, MP3, 48,0 КГц, 192 Кбит/сек, 2 канала
Доп. информация:
  • За исходник спасибо MILALUD
  • Рип: destruktor
1. Большой человек / Big Dog
Команда криминалистов с помощью видеонаблюдения и медицинских и психологических тестов разыскивает одного большого любителя фастфудового питания.
2. Капитан отвага / Captain Courage
Разыскивая человека, похожего на боксера или часто дерущегося рок-музыканта, команда открывает историю героизма и утрат, связанную с 11 сентября.
3. Экстремал / The Daredevil
Поиски человека, возможно, танцора балета, ведут команду в VIP-спортзал, испытательный полигон, пустыню Мохаве и на гору дельтапланеристов.
4. Ас из Калифорнии / California Hot Shot
Обнаружив среди телесных повреждений искомого человека загадочные ожоги ног, команда понимает, что перед ней стоит очень необычная задача.
5. Супервумен / Superwoman
Команда пытается найти женщину, о которой известно, что она не только имеет отличную физическую подготовку и крепкие нервы, но и любит гамбургеры.
6. Человек-загадка / Enigma Man
На этот раз команда разыскивает человека примерно пятидесяти лет с мускулистым торсом, устрашающей внешностью и восточноевропейским акцентом.
7. Чудотворец / The Miracle Man
Команда пытается вычислить мужчину с травмой ноги, локтевого и голеностопного суставов и с огромным шрамом на бедре, возможно, военного.
8. Адреналиновый наркоман / Adrenaline Junkie
Этот человек выглядит молодо, атлетичен, перенес несколько травм и пластическую операцию. Команда уверена, что он ветеран войны или каскадер.
Общее
Полное имя : C:\Будни криминалистов сезон 1\5. Супервумен.avi
Формат : AVI
Формат/Информация : Audio Video Interleave
Размер файла : 698 Мбайт
Продолжительность : 44 м.
Общий поток : 2171 Кбит/сек
Программа кодирования : VirtualDubMod 1.5.10.3 | www.virtualdub-fr.org || (build 2550/release)
Видео
Идентификатор : 0
Формат : MPEG-4 Visual
Профиль формата : Advanced Simple@L5
Параметр BVOP формата : 2
Параметр QPel формата : Нет
Параметр GMC формата : Без точки перехода
Параметр матрицы формата : Default (MPEG)
Идентификатор кодека : XVID
Идентификатор кодека/Подсказка : XviD
Продолжительность : 44 м.
Битрейт : 1772 Кбит/сек
Ширина : 720 пикселей
Высота : 400 пикселей
Соотношение сторон : 16:9
Частота кадров : 25,000 кадров/сек
Цветовое пространство : YUV
Субдискретизация насыщенности : 4:2:0
Битовая глубина : 8 бит
Тип развёртки : Прогрессивная
Метод сжатия : С потерями
Бит/(Пиксели*Кадры) : 0.246
Размер потока : 570 Мбайт (82%)
Библиотека кодирования : XviD 1.2.1 (UTC 2008-12-04)
Аудио #1
Идентификатор : 1
Формат : MPEG Audio
Версия формата : Version 1
Профиль формата : Layer 3
Режим : Joint stereo
Идентификатор кодека : 55
Идентификатор кодека/Подсказка : MP3
Продолжительность : 44 м.
Вид битрейта : Постоянный
Битрейт : 192 Кбит/сек
Каналы : 2 канала
Частота : 48,0 КГц
Метод сжатия : С потерями
Размер потока : 61,8 Мбайт (9%)
Выравнивание : Соединение по промежуткам
Продолжительность промежутка : 40 мс. (1,00 видеокадр)
Время предзагрузки промежутка : 504 мс.
Библиотека кодирования : LAME3.98.4ЄЄЄЄЄЄЄЄЄЄ
Аудио #2
Идентификатор : 2
Формат : MPEG Audio
Версия формата : Version 1
Профиль формата : Layer 3
Режим : Joint stereo
Идентификатор кодека : 55
Идентификатор кодека/Подсказка : MP3
Продолжительность : 44 м.
Вид битрейта : Постоянный
Битрейт : 192 Кбит/сек
Каналы : 2 канала
Частота : 48,0 КГц
Метод сжатия : С потерями
Размер потока : 61,8 Мбайт (9%)
Выравнивание : Соединение по промежуткам
Продолжительность промежутка : 40 мс. (1,00 видеокадр)
Время предзагрузки промежутка : 504 мс.
Библиотека кодирования : LAME3.98.4
У вас нет необходимых прав для просмотра вложений в этом сообщении.